新宝島
サカナクション

EXTREME

Level: 8
BPM: 149-158
Notes: 481

BPM: 149
1
口口口口 |----|
口口口口 |----|
口口口口 |----|
口口口口 |----|
2
①口口① |①---|
口①①口 |----|
①口口① |----|
口口口口 |----|
3
口口口口 |①---|
口②③口 |----|
①口口① |②---|
①口口① |③---|
4
口口口口 |----|
口口口口 |①---|
①口口① |②---|
②口口② |----|
5
口①①口 |①---|
②口口② |----|
③口口口 |②---|
口口③口 |③---|
6
②口口口 |①---|
口口②口 |----|
口②口① |②---|
口①口口 |----|
7
口口口① |①---|
②①口③ |----|
②口①③ |②---|
口口口口 |③---|
8
①口口② |----|
口①②口 |①---|
口口口口 |②---|
口口口口 |----|
9
口口口口 |①---|
①口口② |②---|
③①②④ |③---|
③②①④ |④---|

BPM: 158
10
①①①口 |①-②③|
②口⑤口 |④-⑤⑥|
⑥口③口
口④口口

口口口⑪
⑫⑧口口
口口口⑨ |⑦-⑧⑨|
⑩口口⑦ |⑩-⑪⑫|
11
②⑧⑤⑪ |①-②③|
⑫口⑨③ |④-⑤⑥|
⑥④①口 |⑦-⑧⑨|
⑩口口⑦ |⑩-⑪⑫|
12
②⑧⑤⑪ |①-②③|
口⑫口⑨ |④-⑤⑥|
⑥口①③ |⑦-⑧⑨|
⑩④口⑦ |⑩-⑪⑫|
13
口口口口 |①-②③|
②口口口 |④-⑤-|
口口口③
口④①⑤

口⑥⑥口
口口⑦⑦
⑧⑧⑨⑨ |⑥-⑦-|
口口口口 |⑧-⑨-|
14
口②口④ |①---|
口口口口 |②---|
口口⑤口 |③---|
①口③⑤ |④-⑤-|
15
④③口③ |--①-|
③口③口 |--②-|
口①口口 |--③-|
口②口口 |--④-|
16
④口②口 |①---|
口口口口 |②---|
口⑤口口 |③---|
⑤③口① |④-⑤-|
17
③口③④ |--①-|
口③口③ |--②-|
口口①口 |--③-|
口口②口 |--④-|
18
口②口④ |①---|
口口口口 |②---|
口口⑤口 |③---|
①口③⑤ |④-⑤-|
19
④③口③ |--①-|
③口③口 |--②-|
口①口口 |--③-|
口②口口 |--④-|
20
④口②口 |①---|
口口口口 |②---|
口⑤口口 |③---|
⑤③口① |④-⑤-|
21
口口口口 |--①-|
口口口口 |--②-|
口口①口
口口②口

口口③口
口④口口
口口⑤口 |--③-|
口口口口 |④-⑤-|
22
口②口④ |①---|
口口口口 |②---|
口口⑤口 |③---|
①口③⑤ |④-⑤-|
23
②口①口 |--①-|
口口口③ |--②-|
④④口口 |③-④-|
⑥口⑤口 |⑤-⑥-|
24
④口②口 |①---|
口口口口 |②---|
口⑤口口 |③---|
⑤③口① |④-⑤-|
25
口②口① |--①-|
口口口③ |--②-|
④④口口 |③-④-|
⑥口口⑤ |⑤-⑥-|
26
②口③口 |①-②-|
口④口⑤ |③-④-|
⑥口⑦① |⑤-⑥-|
口⑧口口 |⑦-⑧-|
27
口口⑦口 |--①-|
④口①⑤ |②-③-|
⑥④⑤③ |④-⑤-|
②口③口 |⑥-⑦-|
28
口②口④ |①---|
口口口口 |②---|
口口⑤口 |③---|
①口③⑤ |④-⑤-|
29
口口口③ |--①-|
④口口口 |--②-|
口①口⑤ |--③-|
口②口口 |④-⑤-|
30
口②口④ |①---|
口口口口 |②---|
口口⑤口 |③---|
①口③⑤ |④-⑤-|
31
②口①⑦ |--①-|
④口口③ |②-③-|
口口⑤⑤ |④-⑤-|
口⑥口口 |⑥-⑦-|
32
口口②口 |①---|
口口口口 |②---|
口口口口
①口口口

④口口口
口口口口
口⑤口口 |③---|
⑤③口口 |④-⑤-|
33
口②口① |--①-|
口口口③ |②-③-|
口口口口
口口口口

口口口⑦
④口口口
口口⑤⑤ |④-⑤-|
⑥口口口 |⑥-⑦-|
34
②口⑧⑧ |①-②-|
⑦②⑥④ |③-④-|
口⑥④口 |⑤-⑥-|
⑤口①③ |⑦-⑧-|
35
①⑦⑤口 |--①-|
口⑥④④ |②-③-|
口③③③ |④-⑤-|
②②②② |⑥-⑦-|
36
口③③② |①---|
①③③② |②---|
①口④② |--③-|
①口口口 |④---|
37
口⑥⑦⑧ |①-②-|
⑤口⑦口 |③-④-|
⑤⑥口⑧ |⑤-⑥-|
①②③④ |⑦-⑧-|
38
②口口④ |①---|
②口口④ |②---|
口③①口 |③---|
①①③③ |④---|
39
口④④④ |①---|
口③③④ |②---|
②②③④ |③---|
①②口口 |④---|
40
口口口口 |----|
口①①口 |①---|
③②②④ |②---|
口口口口 |③-④-|
41
口口口口 |--①-|
①①①① |----|
口②口口 |----|
②①①口 |②---|
42
④③口① |----|
③②①口 |①---|
口口②③ |②---|
口口③④ |③-④-|
43
②②①① |--①-|
②②①① |----|
①①②② |----|
①①②② |②---|
44
⑤口口④ |----|
口口③口 |①-②-|
①②③口 |--③-|
①口口⑤ |④-⑤-|
45
口④①口 |--①-|
②口③口 |--②-|
口③口② |--③-|
口①口口 |--④-|
46
④口口② |①---|
④口口② |②---|
③③口③ |③---|
①口①① |④---|
47
④④④口 |①---|
④③③口 |②---|
④③②② |③---|
口口②① |④---|
48
②口口② |----|
口口口口 |①---|
③①①④ |②---|
③口口④ |③-④-|
49
口口口口 |--①-|
①①①① |----|
口②口口 |----|
②①①口 |②---|
50
④③口① |----|
③②①口 |①---|
口口②③ |②---|
口口③④ |③-④-|
51
②②①① |--①-|
②②①① |----|
①①②② |----|
①①②② |②---|
52
口口口④ |----|
口口③④ |①-②-|
口②口④ |--③-|
①②口口 |④---|
53
口③口⑥ |----|
口③口⑥ |①-②-|
①⑤④④ |③-④-|
①⑤②② |⑤-⑥-|
54
口②口④ |①---|
口口口口 |②---|
口口⑤口 |③---|
①口③⑤ |④-⑤-|
55
④③口③ |--①-|
③口③口 |--②-|
口①口口 |--③-|
口②口口 |--④-|
56
④口②口 |①---|
口口口口 |②---|
口⑤口口 |③---|
⑤③口① |④-⑤-|
57
③口③④ |--①-|
口③口③ |--②-|
口口①口 |--③-|
口口②口 |--④-|
58
口②口④ |①---|
口口口口 |②---|
口口⑤口 |③---|
①口③⑤ |④-⑤-|
59
④③口③ |--①-|
③口③口 |--②-|
口①口口 |--③-|
口②口口 |--④-|
60
口口口口 |①---|
口口口口 |----|
口口口口 |----|
①口口① |----|

不確定度: 0

最終更新:2017年07月30日 19:19