My Precious
本場切絵(CV:白石晴香)

EXTREME

Level: 7
BPM: 136
Notes: 386

1
口口口口 |----|
口口口口 |----|
口口口口 |----|
口口口口 |----|
2
口口口口 |----|
口口口口 |----|
口口口口 |----|
口口口口 |----|
3
⑧⑥口⑦ |--①②|
口③⑤口 |③-④⑤|
口口②④ |⑥-⑦-|
口口口① |--⑧-|
4
口口口口 |--①②|
口⑤③口 |③-④⑤|
④②口口
①口口口

⑧口⑥口
口口口口
口口口⑦ |⑥-⑦-|
⑨口口口 |⑧-⑨-|
5
⑧⑥口⑦ |--①②|
口③⑤口 |③-④⑤|
口口②④ |⑥-⑦-|
口口口① |--⑧-|
6
口口口口 |--①②|
口⑤③口 |③-④⑤|
④②口口
①口口口

⑧口⑥口
口口口口
口口口⑦ |⑥-⑦-|
⑨口口口 |⑧-⑨-|
7
口口口口 |①---|
口口口口 |----|
口①①口 |----|
口口口口 |----|
8
口口口口 |①---|
④口②口 |②---|
口口口口 |③---|
口③口① |④---|
9
口口口口 |①---|
口口口口 |----|
口①①口 |----|
口口口口 |----|
10
①口口① |----|
口口口口 |----|
口口口② |①---|
口口口口 |--②-|
11
口口口口 |①---|
口③①口 |--②-|
②④④口 |③---|
口口口口 |--④-|
12
口①①口 |①---|
⑤口口口 |--②-|
口④口口 |③--④|
③口口② |--⑤-|
13
口②①④ |①---|
⑤口③口 |②-③-|
口口口⑥ |--④-|
口口口口 |⑤-⑥-|
14
口口口口 |----|
口口口口 |----|
口口口① |----|
口口口口 |--①-|
15
口口④口 |①---|
口③①口 |--②-|
②口口口 |③---|
口口口口 |--④-|
16
口口口口 |①---|
口口口口 |--②-|
口①口口
口口口②

口口口口
⑤口口口
口④口口 |③--④|
③口口口 |--⑤-|
17
口口①① |①---|
口②口口 |②-③-|
口③口口 |----|
口口口口 |----|
18
⑥②④口 |--①-|
口口口口 |②-③-|
口口口⑦ |④-⑤-|
①⑤口③ |⑥-⑦-|
19
口口口口 |①---|
口③①口 |--②-|
②④④口 |③---|
口口口口 |--④-|
20
口①①口 |①---|
⑤口口口 |--②-|
口④口口 |③--④|
③口口② |--⑤-|
21
口②①口 |①---|
口口③口 |②-③-|
口口口口
口口口口

口⑥⑥口
口口口④
口口口⑤ |--④-|
口口口口 |⑤-⑥-|
22
③口口口 |----|
口②口口 |①---|
口①口口 |②---|
口口口④ |③-④-|
23
口口口口 |①---|
口口口口 |②-③-|
口③①口
②口口口

口口④口
口口⑤口
口口⑥口 |--④-|
口口口口 |⑤-⑥-|
24
口口口口 |----|
口口口④ |--①-|
口②③口 |②---|
①口口口 |③-④-|
25
口口口口 |----|
③③③口 |①---|
②②口口 |②---|
①口口口 |③---|
26
①①①① |①---|
⑤口②口 |--②-|
口⑦③⑥ |③-④-|
口口④口 |⑤-⑥⑦|
27
口口①口 |----|
⑤⑥口② |①-②-|
⑤⑥口③ |③-④-|
口口④口 |⑤-⑥-|
28
③口口① |--①-|
口④②口 |②-③-|
⑥口口⑤ |④-⑤-|
口⑦⑦口 |⑥-⑦-|
29
口口口口 |①---|
①口口① |②---|
口②②口
口口口口

口口口口
口口口⑤
口口口口 |--③-|
口口④③ |④-⑤-|
30
口④④口 |①-②-|
口口①口 |③-④-|
口③口⑤ |----|
②口⑥口 |⑤-⑥-|
31
口口口口 |①---|
口口口口 |②-③-|
口③②口 |----|
口①口口 |----|
32
口口口口 |①---|
口③②口 |②-③-|
④口①④ |----|
口口口口 |④---|
33
口口④口 |①-②-|
⑤⑤②② |③-④⑤|
口口口口
③③①①

⑦口口⑦
口口口口
口⑥⑥口 |--⑥-|
⑧口口⑧ |⑦-⑧-|
34
口③口口 |--①-|
③口口口 |②-③-|
②口口①
口②①口

口口④口
口口口④
口口口口 |④---|
⑤⑥⑤⑥ |⑤-⑥-|
35
②口②口 |--①-|
口①①口 |②---|
口②口②
口口口口

⑤③⑤③
口口口口
③⑤③⑤ |③---|
口④④口 |④-⑤-|
36
口①口① |--①-|
③口⑤口 |--②-|
①口①口 |--③-|
口④②② |④-⑤-|
37
⑥口口⑥ |①---|
口②⑤口 |--②③|
⑦口③⑦ |④-⑤-|
口④口① |⑥-⑦-|
38
口口口口 |--①-|
口口口口 |----|
口口口口
口①①口

口口口口
口口口口
口口口口 |----|
②③②③ |②-③-|
39
②口②口 |--①-|
口①①口 |②---|
口②口②
口口口口

⑤③⑤③
口口口口
③⑤③⑤ |③---|
④口口④ |④-⑤-|
40
口①口① |--①-|
口口④口 |--②-|
①⑤①口 |--③-|
②②口③ |④-⑤-|
41
①①①口 |①---|
口口②口 |--②-|
口④④口 |③---|
口③③③ |--④-|
42
①①①① |①---|
口③③口 |②-③-|
口口口口 |--④-|
④②②④ |----|
43
①口口① |①---|
口③②口 |--②-|
③①①② |----|
口口口口 |③---|
44
口口②口 |①---|
口口口② |②---|
口①口口
口口①口

口口口口
口③口口
口④③口 |③---|
④口口口 |④---|
45
口③口③ |--①-|
口口④口 |②---|
①口①⑤ |③-④-|
口②口口 |--⑤-|
46
④口口④ |①-②-|
口口口口 |③-④-|
口①口口
③口②口

口口口口
口口口口
口⑤⑤口 |--⑤-|
口口⑥口 |--⑥-|
47
口④口④ |①---|
口口口口 |②-③-|
③④口② |--④-|
口①口口 |----|
48
①口①口 |①---|
口⑤③口 |--②-|
口口①口 |③---|
④口口② |④-⑤-|
49
①口口① |--①-|
口口口口 |----|
①口口① |----|
口口口口 |----|
50
口④②口 |----|
口口口口 |--①-|
③口口① |②---|
口口口口 |③-④-|
51
⑧⑥口⑦ |--①②|
口③⑤口 |③-④⑤|
口口②④ |⑥-⑦-|
口口口① |--⑧-|
52
⑨口⑥⑧ |--①②|
⑨⑤③⑧ |③-④⑤|
④②口口 |⑥-⑦-|
①⑦⑦口 |⑧-⑨-|
53
⑧⑥口⑦ |--①②|
口③⑤口 |③-④⑤|
口口②④ |⑥-⑦-|
口口口① |--⑧-|
54
口口口口 |--①②|
口⑤③口 |③-④⑤|
④②口口
①口口口

⑧⑧⑥口
口口口口
口⑨⑨口 |⑥-⑦-|
口口⑦⑦ |⑧-⑨-|
55
口口口口 |①---|
①口口① |----|
口口口口 |----|
口口口口 |----|
56
口口口口 |①---|
④口②口 |②---|
口口口口 |③---|
口③口① |④---|
57
口口口口 |①---|
口口口口 |----|
口①①口 |----|
口口口口 |----|
58
口③②口 |----|
①⑤④① |----|
口口口口 |①---|
口口口口 |②③④⑤|

不確定度: 0

最終更新:2017年07月30日 19:14