JACK THE RIPPER feat. Iceon
猫大樹

EXTREME

Level: 10
BPM: 145
Notes: 810

1
口口口口 |----|
口口口口 |----|
口口口口 |----|
口口口口 |----|
2
口⑤口口 |①---|
⑤口③③ |--②-|
口①②口 |③--④|
②④④① |--⑤-|
3
口口③② |----|
口⑤④① |--①-|
口口口口 |②-③-|
口口口口 |④-⑤-|
4
口口⑤口 |①---|
③③口⑤ |--②-|
口②①口 |③--④|
①④④② |--⑤-|
5
②③口口 |----|
①④⑤口 |--①-|
口口口口 |②-③-|
口口口口 |④-⑤-|
6
口口②口 |①--②|
②口口口 |--③-|
口③口①
口①口③

口⑦⑦口
口口口⑥
口口口⑤ |④-⑤-|
口口④口 |⑥-⑦-|
7
口②③④ |----|
口①⑤口 |--①-|
口口口口 |②-③-|
口口口口 |④-⑤-|
8
口②口口 |①--②|
口口口② |--③-|
①口③口
③口①口

口⑦⑦口
⑥口口口
⑤口口口 |④-⑤-|
口④口口 |⑥-⑦-|
9
④③②口 |----|
口⑤①口 |--①-|
口口口口 |②-③-|
口口口口 |④-⑤-|
10
④⑤⑥③ |①---|
口⑧⑦① |②-③-|
口⑨口① |--④⑤|
口①口② |⑥⑦⑧⑨|
11
③⑥⑤④ |①---|
①⑦⑧口 |②-③-|
①口⑨口 |--④⑤|
②口①口 |⑥⑦⑧⑨|
12
④⑤⑥③ |①---|
口⑧⑦① |②-③-|
口⑨口① |--④⑤|
口①口② |⑥⑦⑧⑨|
13
③⑥⑤④ |①---|
①⑦⑧口 |②-③-|
①口⑨口 |--④⑤|
②口①口 |⑥⑦⑧⑨|
14
②口口④ |①-②-|
⑥⑧口口 |③-④-|
①口口③ |⑤-⑥-|
⑤⑦口口 |⑦-⑧-|
15
⑩⑨⑧⑦ |①②③④|
⑫⑪⑥⑤ |⑤⑥⑦⑧|
⑭⑬④③ |⑨⑩⑪⑫|
⑯⑮②① |⑬⑭⑮⑯|
16
口⑥口④ |①-②-|
⑧口②口 |③-④-|
口⑤口③ |⑤-⑥-|
⑦口①口 |⑦-⑧-|
17
口口④口 |①-②-|
口②⑧⑥ |③-④-|
口口③口 |⑤-⑥-|
口①⑦⑤ |⑦-⑧-|
18
口②口口 |①-②-|
④口口口 |③-④-|
口①口口
③口口口

口⑧口口
口⑥口口
口⑦口口 |⑤-⑥-|
口⑤口口 |⑦-⑧-|
19
⑮⑯⑧⑦ |①②③④|
⑬⑭⑥⑤ |⑤⑥⑦⑧|
⑪⑫④③ |⑨⑩⑪⑫|
⑨⑩②① |⑬⑭⑮⑯|
20
口口②① |①②③④|
⑩⑫④③ |⑤⑥⑦⑧|
口口⑥⑤ |⑨-⑩-|
⑨⑪⑧⑦ |⑪-⑫-|
21
口口口口 |①-②-|
⑥⑧④② |③-④-|
口口口口 |⑤-⑥-|
⑤⑦③① |⑦-⑧-|
22
④口口② |①-②-|
口口⑧⑥ |③-④-|
③口口① |⑤-⑥-|
口口⑦⑤ |⑦-⑧-|
23
⑦⑧⑨⑩ |①②③④|
⑤⑥⑪⑫ |⑤⑥⑦⑧|
③④⑬⑭ |⑨⑩⑪⑫|
①②⑮⑯ |⑬⑭⑮⑯|
24
④口⑥口 |①-②-|
口②口⑧ |③-④-|
③口⑤口 |⑤-⑥-|
口①口⑦ |⑦-⑧-|
25
口④口口 |①-②-|
⑥⑧②口 |③-④-|
口③口口 |⑤-⑥-|
⑤⑦①口 |⑦-⑧-|
26
⑯⑮⑧⑦ |①②③④|
⑭⑬⑥⑤ |⑤⑥⑦⑧|
⑫⑪④③ |⑨⑩⑪⑫|
⑩⑨②① |⑬⑭⑮⑯|
27
⑩⑨⑧⑦ |①②③④|
⑫⑪⑥⑤ |⑤⑥⑦⑧|
⑭⑬④③ |⑨⑩⑪⑫|
⑯⑮②① |⑬⑭⑮⑯|
28
口口⑧⑥ |①-②-|
口口④② |③-④-|
口口⑦⑤ |⑤-⑥-|
口口③① |⑦-⑧-|
29
⑥⑧口口 |①-②-|
②④口口 |③-④-|
⑤⑦口口 |⑤-⑥-|
①③口口 |⑦-⑧-|
30
口口口口 |①-②-|
④②①③ |③-④-|
口口口口
③①②④

⑥⑧⑩⑤
口口口口
⑤口口口 |⑤-⑥⑦|
口⑦⑨口 |⑧⑨⑩-|
31
口口口口 |①-②-|
③①②④ |③-④-|
④②①③
口口口口

⑤口口口
口口⑨口
口口口口 |⑤-⑥⑦|
⑥⑦⑧⑤ |⑧-⑨-|
32
口①②口 |①-②-|
③口口④ |③-④-|
④②①③
口口口口

⑤⑦⑨⑪
口口口口
口口口口 |⑤-⑥⑦|
⑥⑧⑩⑤ |⑧⑨⑩⑪|
33
口口口口 |①-②-|
③①②④ |③-④-|
④②①③
口口口口

⑤口口口
口口口口
口⑩⑨口 |⑤-⑥⑦|
⑥⑦⑧⑤ |⑧⑨⑩-|
34
口①②口 |①-②-|
④②①③ |③-④-|
口口口口
③口口④

⑥⑧⑩⑤
口口口口
⑤口口口 |⑤-⑥⑦|
口⑦⑨口 |⑧⑨⑩-|
35
口口口口 |①-②-|
③①②④ |③-④-|
④②①③
口口口口

⑤口口口
口口⑨口
口口口口 |⑤-⑥⑦|
⑥⑦⑧⑤ |⑧-⑨-|
36
口①②口 |①-②-|
③口口④ |③-④-|
④②①③
口口口口

⑤⑦⑨⑪
口口口口
口口口口 |⑤-⑥⑦|
⑥⑧⑩⑤ |⑧⑨⑩⑪|
37
口口口口 |①-②-|
③①②④ |③-④-|
④②①③
口口口口

⑤口口口
口口口口
口⑩⑨口 |⑤-⑥⑦|
⑥⑦⑧⑤ |⑧⑨⑩-|
38
④③②① |①-②-|
①②③④ |③-④-|
口口口口
口口口口

口口⑨口
⑧口口口
⑤⑥⑥⑩ |⑤-⑥⑦|
口⑦口⑤ |⑧⑨⑩-|
39
②①口口 |①-②-|
口口①② |③-④-|
④③口口
口口③④

口口⑦口
⑥口口口
口口⑤⑧ |⑤-⑥⑦|
⑨⑤⑨口 |⑧-⑨-|
40
①②④③ |①-②-|
③④②① |③-④-|
口口口口
口口口口

口⑩口口
口口口⑨
⑦口口口 |⑤-⑥⑦|
⑤口⑧⑥ |⑧⑨⑩-|
41
口口④口 |①-②-|
①②③口 |③-④-|
口③②①
口④口口

⑥口口⑤
⑦口口口
⑧口⑨⑨ |⑤-⑥⑦|
⑤口⑨⑨ |⑧-⑨-|
42
口口①③ |①-②-|
口口②④ |③-④-|
④②口口
③①口口

口口⑥口
⑤⑦口口
口口⑧⑤ |⑤-⑥⑦|
口⑨⑩口 |⑧⑨⑩-|
43
①口口④ |①-②-|
②口③口 |③-④-|
口③口②
④口口①

⑨口⑤口
口⑦口口
⑥口⑧口 |⑤-⑥⑦|
口⑤口口 |⑧-⑨-|
44
口①④口 |①-②-|
②口口③ |③-④-|
③口口②
口④①口

⑥口口⑤
口⑦⑪口
口口⑧⑩ |⑤-⑥⑦|
⑤口口⑨ |⑧⑨⑩⑪|
45
④③①② |①-②-|
①口口③ |③-④-|
口口口口
口②④口

口口口口
⑪⑤⑥⑫
⑨⑦⑧⑩ |⑤⑥⑦⑧|
口口口口 |⑨⑩⑪⑫|
46
①①口① |①-②-|
口口③口 |③-④-|
口③口口
④口口②

⑧口口⑥
口⑤口⑦
⑦口⑤口 |⑤-⑥-|
口口口口 |⑦-⑧-|
47
口④口④ |①-②-|
①③①口 |③-④-|
口①③①
④口④②

⑤口⑦口
⑦⑧⑥口
口⑥⑧⑦ |⑤-⑥-|
口⑦口口 |⑦-⑧-|
48
⑧①口⑥ |①-②-|
⑦⑤③① |③-④-|
①③⑤⑦ |⑤-⑥-|
②口①④ |⑦-⑧-|
49
口②⑤口 |①---|
④②口① |②---|
①口②⑥ |③-④-|
口③②口 |⑤-⑥-|
50
①①口① |①-②-|
口口③口 |③-④-|
口③口口
④口口②

⑧口口⑥
口⑤口⑦
⑦口⑤口 |⑤-⑥-|
口口口口 |⑦-⑧-|
51
口口口口 |①-②-|
①③①口 |③-④-|
口①③①
④④④②

⑤⑦⑦⑦
口口⑥口
口⑥口口 |⑤-⑥-|
口口口⑧ |⑦-⑧-|
52
口口口口 |①-②-|
口①口① |③---|
口口②口
①③①口

口口口口
④口口⑤
⑤口口④ |④---|
口口口口 |⑤---|
53
①③③① |①---|
③①①③ |②---|
口①①口 |③---|
②④④② |④---|
54
①⑨⑮⑦ |①②③④|
⑩②⑧⑯ |⑤⑥⑦⑧|
⑭⑥④⑫ |⑨⑩⑪⑫|
⑤⑬⑪③ |⑬⑭⑮⑯|
55
①④③② |----|
⑤①②③ |--①-|
⑤②①④ |②-③-|
②⑤⑤① |④-⑤-|
56
①⑨⑮⑦ |①②③④|
⑩②⑧⑯ |⑤⑥⑦⑧|
⑭⑥④⑫ |⑨⑩⑪⑫|
⑤⑬⑪③ |⑬⑭⑮⑯|
57
②③④① |----|
③②①⑤ |--①-|
④①②⑤ |②-③-|
①⑤⑤② |④-⑤-|
58
②口③① |①--②|
口②②口 |--③-|
口②口口
①口口③

口④口⑥
⑤口⑦⑦
⑤⑦⑥⑦ |④-⑤-|
口④⑥口 |⑥-⑦-|
59
①④③② |----|
⑤①②③ |--①-|
⑤②①④ |②-③-|
②⑤⑤① |④-⑤-|
60
①③口② |①--②|
口②②口 |--③-|
口口②口
③口口①

⑥口④口
⑦⑦口⑤
⑦⑥⑦⑤ |④-⑤-|
口⑥④口 |⑥-⑦-|
61
②③④① |----|
③②①⑤ |--①-|
④①②⑤ |②-③-|
①⑤⑤② |④-⑤-|
62
口口口③ |①---|
口口①口 |②-③-|
口①口口
①口口②

④⑤⑥口
口⑧⑦口
口⑨口口 |--④⑤|
口口口口 |⑥⑦⑧⑨|
63
③口口口 |①---|
口口口① |②-③-|
口口①口
②①口口

口⑥⑤④
口⑦⑧口
口口⑨口 |--④⑤|
口口口口 |⑥⑦⑧⑨|
64
口口口③ |①---|
①口口口 |②-③-|
口①口口
口口①②

④⑤⑥口
口⑧⑦口
口⑨口口 |--④⑤|
口口口口 |⑥⑦⑧⑨|
65
③③口② |①---|
③口口① |②-③-|
口口①③ |----|
②①③③ |----|

不確定度: 0

最終更新:2016年10月16日 02:15