反撃
猫大樹

EXTREME

Level: 9
BPM: 145
Notes: 784

1
口口口口 |----|
口口口口 |----|
口口口口 |----|
口口口口 |----|
2
③口口⑦ |①②--|
口口口口 |③-④-|
④口口⑧ |⑤⑥--|
①⑥②⑤ |⑦-⑧-|
3
③口口⑦ |①②--|
口口口口 |③-④-|
④口口⑧ |⑤⑥--|
①⑥②⑤ |⑦-⑧-|
4
①①③③ |①---|
①①口口 |②---|
口口口口 |③---|
④④②② |④---|
5
①①⑤⑤ |①---|
口口③口 |②-③-|
④口口② |④---|
口④口口 |⑤---|
6
①⑥口⑤ |①-②-|
口⑦口③ |③-④-|
③⑧④⑨ |⑤-⑥⑦|
⑤②口① |⑧-⑨-|
7
①口口③ |①-②-|
②口口口 |③-④-|
口口口口
③④口①

⑥⑦口口
⑦⑥口口
口口⑤口 |⑤--⑥|
口口口口 |-⑦--|
8
③③口① |①---|
口口口① |②---|
口口口口 |③---|
②②④④ |④---|
9
⑤⑤①① |①---|
口③口口 |②-③-|
②口口④ |④---|
口口④口 |⑤---|
10
⑤口⑥① |①-②-|
③口⑦口 |③-④-|
⑨④⑧③ |⑤-⑥⑦|
①口②⑤ |⑧-⑨-|
11
③口口① |①-②-|
口口口② |③-④-|
口口口口
①口④③

口口⑦⑥
口口⑥⑦
口⑤口口 |⑤--⑥|
口口口口 |-⑦--|
12
①③口口 |①---|
口口口口 |②---|
口②④口 |③---|
口④②口 |④---|
13
口口①③ |①---|
口口口口 |②---|
口②④口 |③---|
口④②口 |④---|
14
①口①口 |①---|
口②口② |②---|
③口③口 |③---|
口④口④ |④---|
15
①口①口 |①---|
口②口② |②---|
③口口口 |③---|
口③③口 |----|
16
口口③① |①---|
口口口口 |②---|
口④②口 |③---|
口②④口 |④---|
17
③①口口 |①---|
口口口口 |②---|
口④②口 |③---|
口②④口 |④---|
18
口①口① |①---|
②口②口 |②---|
口③口③ |③---|
④口④口 |④---|
19
口①口① |①---|
②口②口 |②---|
口口口③ |③---|
口③③口 |----|
20
①口口② |①---|
③口口④ |②---|
口①①② |③---|
口③③④ |④---|
21
口⑤口⑤ |①---|
口①①口 |②-③-|
②③⑤④ |④---|
①④②③ |⑤---|
22
①口①④ |①-②-|
口口口口 |③-④-|
口口口口
③口③②

口⑤⑥口
⑤口⑦口
⑨口⑧口 |⑤-⑥⑦|
口⑨口口 |⑧-⑨-|
23
④⑦⑥③ |①-②-|
口⑥⑦口 |③-④-|
⑤②口① |⑤--⑥|
②⑤①口 |-⑦--|
24
①口口② |①---|
③口口④ |②---|
口①①② |③---|
口③③④ |④---|
25
口口口口 |①---|
口①①口 |②-③-|
②③口口
①口②③

⑤口口口
口口⑤口
口口口④ |④---|
口④口口 |⑤---|
26
口③④口 |①-②-|
②口口① |③-④-|
①口口②
口④③口

口口口⑤
⑧⑦⑥口
口⑥⑦⑧ |⑤-⑥-|
⑤口口口 |⑦-⑧-|
27
①①口口 |①---|
口口口口 |----|
口口口口
口口①①

口③②口
口②③口
口口口口 |-②-③|
④口口④ |-④--|
28
②口口① |①---|
④口口③ |②---|
②①①口 |③---|
④③③口 |④---|
29
⑤口⑤口 |①---|
口①①口 |②-③-|
④⑤③② |④---|
③②④① |⑤---|
30
④①口① |①-②-|
口口口口 |③-④-|
口口口口
②③口③

口⑥⑤口
口⑦口⑤
口⑧口⑨ |⑤-⑥⑦|
口口⑨口 |⑧-⑨-|
31
③⑥⑦④ |①-②-|
口⑦⑥口 |③-④-|
①口②⑤ |⑤--⑥|
口①⑤② |-⑦--|
32
②口口① |①---|
④口口③ |②---|
②①①口 |③---|
④③③口 |④---|
33
口口口口 |①---|
口①①口 |②-③-|
口口③②
③②口①

口口口⑤
口⑤口口
④口口口 |④---|
口口④口 |⑤---|
34
口④③口 |①-②-|
①口口② |③-④-|
②口口①
口③④口

⑤口口口
口⑥⑦⑧
⑧⑦⑥口 |⑤-⑥-|
口口口⑤ |⑦-⑧-|
35
口口①④ |①---|
①口口口 |②---|
口口口① |③---|
③①口② |④---|
36
①①③③ |①---|
①①口口 |②---|
口口口口 |③---|
④④②② |④---|
37
①①⑤⑤ |①---|
口口③口 |②-③-|
④口口② |④---|
口④口口 |⑤---|
38
①⑥口⑤ |①-②-|
口⑦口③ |③-④-|
③⑧④⑨ |⑤-⑥⑦|
⑤②口① |⑧-⑨-|
39
①口口③ |①-②-|
②口口口 |③-④-|
口口口口
③④口①

⑥⑦口口
⑦⑥口口
口口⑤口 |⑤--⑥|
口口口口 |-⑦--|
40
③③口① |①---|
口口口① |②---|
口口口口 |③---|
②②④④ |④---|
41
⑤⑤①① |①---|
口③口口 |②-③-|
②口口④ |④---|
口口④口 |⑤---|
42
⑤口⑥① |①-②-|
③口⑦口 |③-④-|
⑨④⑧③ |⑤-⑥⑦|
①口②⑤ |⑧-⑨-|
43
③口口① |①-②-|
口口口② |③-④-|
口口口口
①口④③

口口⑦⑥
口口⑥⑦
口⑤口口 |⑤--⑥|
口口口口 |-⑦--|
44
⑧口口口 |①-②-|
②⑦⑦⑤ |③-④-|
口③③口 |⑤-⑥-|
④⑥口① |⑦-⑧-|
45
⑧口口口 |①-②-|
②⑦⑦⑤ |③-④-|
口③③口 |⑤-⑥-|
④⑥口① |⑦-⑧-|
46
⑧口口口 |①-②-|
②⑦⑦⑤ |③-④-|
口③③口 |⑤-⑥-|
④⑥口① |⑦-⑧-|
47
口口口口 |①-②-|
②⑦⑦⑤ |③-④-|
口③③口 |⑤-⑥-|
④⑥口① |⑦---|
48
①③⑫⑩ |①②③④|
⑤⑦⑯⑭ |⑤⑥⑦⑧|
⑮⑬⑧⑥ |⑨⑩⑪⑫|
⑪⑨②④ |⑬⑭⑮⑯|
49
①③⑫⑩ |①②③④|
⑤⑦⑯⑭ |⑤⑥⑦⑧|
⑮⑬⑧⑥ |⑨⑩⑪⑫|
⑪⑨②④ |⑬⑭⑮⑯|
50
①③⑫⑩ |①②③④|
⑤⑦⑯⑭ |⑤⑥⑦⑧|
⑮⑬⑧⑥ |⑨⑩⑪⑫|
⑪⑨②④ |⑬⑭⑮⑯|
51
①③口口 |①②③④|
⑤⑦口口 |⑤⑥⑦⑧|
口口⑧⑥
口口②④

⑯⑭⑫⑩
口口口口
口口口口 |⑨⑩⑪⑫|
⑨⑪⑬⑮ |⑬⑭⑮⑯|
52
口口口口 |①---|
口②②① |②---|
口①口①
②口口口

口口口④
③口口口
口④④口 |③---|
口③③口 |④---|
53
②①①口 |①---|
口②②口 |②-③-|
①③③口
口口口口

口⑤口口
口口口口
口口口④ |④---|
口④④⑤ |⑤---|
54
①口①口 |①-②-|
③①③② |③-④-|
①③①④
③口③口

⑦⑤⑦⑤
口口口口
口口口口 |⑤-⑥-|
⑧⑥⑧⑥ |⑦-⑧-|
55
④⑥⑦② |①-②-|
①⑦⑥① |③-④-|
③①口③ |⑤--⑥|
⑤③口⑤ |-⑦--|
56
口口口② |①---|
①口口口 |②---|
①口①口
②口口口

④口口口
口口口③
口④④口 |③---|
口③③口 |④---|
57
口①①② |①---|
口②②口 |②-③-|
④③③① |④---|
⑤④④⑤ |⑤---|
58
③①③口 |①-②-|
①②①口 |③-④-|
③①③口
口④口口

⑨口⑨口
口⑨口⑥
口口口⑦ |⑤-⑥⑦|
⑤口⑤⑧ |⑧-⑨-|
59
④①口① |①---|
①口①口 |②---|
口口口口 |③---|
②口口③ |④---|
60
口口口口 |①---|
口②②① |②---|
口①口①
②口口口

口口口④
③口口口
口④④口 |③---|
口③③口 |④---|
61
②①①口 |①---|
口②②口 |②-③-|
①③③口
口口口口

口⑤口口
口口口口
口口口④ |④---|
口④④⑤ |⑤---|
62
①口①口 |①-②-|
③②③口 |③-④-|
①④①口
③口③口

⑨⑤口⑤
口⑨口口
口口⑦口 |⑤-⑥⑦|
口⑧口⑥ |⑧-⑨-|
63
口口①口 |①-②-|
②口口① |③-④-|
④②口③
口④③口

口⑦⑥口
口⑥⑦口
口口口口 |⑤--⑥|
⑤口口⑤ |-⑦--|
64
口口口② |①---|
①口口口 |②---|
①口①口
②口口口

④口口口
口口口③
口④④口 |③---|
口③③口 |④---|
65
口①①② |①---|
口②②口 |②-③-|
④③③① |④---|
⑤④④⑤ |⑤---|
66
口④③口 |①-②-|
①口口② |③-④-|
②口口①
口③④口

⑤口口⑧
口⑥⑦⑧
⑧⑦⑥口 |⑤-⑥-|
⑧口口⑤ |⑦-⑧-|
67
口口①口 |①---|
①口口口 |----|
口口口① |----|
口①口口 |----|
68
④⑤⑩⑨ |①②③-|
口②⑦口 |④-⑤-|
⑤④⑨⑩ |⑥⑦⑧-|
①⑧③⑥ |⑨-⑩-|
69
④⑤⑩⑨ |①②③-|
口②⑦口 |④-⑤-|
⑤④⑨⑩ |⑥⑦⑧-|
①⑧③⑥ |⑨-⑩-|
70
④⑤⑩⑨ |①②③-|
口②⑦口 |④-⑤-|
⑤④⑨⑩ |⑥⑦⑧-|
①⑧③⑥ |⑨-⑩-|
71
④⑤⑩⑨ |①②③-|
口②⑦口 |④-⑤-|
⑤④⑨⑩ |⑥⑦⑧-|
①⑧③⑥ |⑨-⑩-|

不確定度: 0

最終更新:2016年10月16日 02:16