負けないよ…-Runners High-
猫大樹

ADVANCED

Level: 7
BPM: 155
Notes: 451

1
口口口口 |----|
口口口口 |----|
口口口口 |----|
口口口口 |----|
2
口口口口 |①---|
口口口口 |②---|
②①口口 |③---|
③④口口 |④---|
3
口口口口 |①---|
口口口口 |②---|
口口①② |③---|
口口④③ |④---|
4
口口口口 |①---|
②口口② |----|
口①①口 |②---|
口口口口 |----|
5
口口口口 |①---|
②口口② |----|
口①①口 |②---|
口口口口 |----|
6
口口口口 |①---|
口口口口 |②---|
口口①② |③---|
口口④③ |④---|
7
口口口口 |①---|
口口口口 |②---|
②①口口 |③---|
③④口口 |④---|
8
口口口口 |①---|
②口口② |----|
口①①口 |②---|
口口口口 |----|
9
口口口口 |①---|
②口口② |----|
口①①口 |②---|
口口口口 |----|
10
口①①口 |①---|
口口口口 |--②-|
口②②口 |----|
口口口口 |----|
11
口口口口 |①---|
①口②口 |----|
口口口口 |②---|
口口口口 |----|
12
①口口① |①---|
口口口口 |--②-|
口②②口 |----|
口口口口 |----|
13
口口口口 |①---|
口②口① |----|
口口口口 |②---|
口口口口 |----|
14
口①①口 |①---|
口口口口 |--②-|
口②②口 |----|
口口口口 |----|
15
口口口口 |①---|
①口②口 |----|
口口口口 |②---|
口口口口 |----|
16
①口口① |①---|
口口口口 |--②-|
口②②口 |----|
口口口口 |----|
17
口口口口 |①---|
口②口① |----|
口口口口 |②---|
口口口口 |----|
18
①①口口 |①---|
口口口口 |--②-|
口口②② |----|
口口口口 |----|
19
口口口口 |①---|
①口②口 |----|
口口口口 |②---|
口口口口 |----|
20
口口①① |①---|
口口口口 |--②-|
②②口口 |----|
口口口口 |----|
21
口口口口 |①---|
口②口① |----|
口口口口 |②---|
口口口口 |----|
22
①①口口 |①---|
口口口口 |--②-|
口口②② |----|
口口口口 |----|
23
口口口口 |①---|
①口②口 |----|
口口口口 |②---|
口口口口 |----|
24
口口①① |①---|
口口口口 |--②-|
②②口口 |----|
口口口口 |----|
25
口口口口 |①---|
口②口① |----|
口口口口 |②---|
口口口口 |----|
26
口口口口 |①---|
口④②口 |②---|
口③①口 |③---|
口口口口 |④---|
27
口口口口 |①---|
口④②口 |②---|
口③①口 |③---|
口口口口 |④---|
28
口口口口 |①---|
口口口口 |②---|
④③②① |③---|
口口口口 |④---|
29
③③③③ |①---|
口①②口 |②---|
口口口口 |③---|
口口口口 |----|
30
口②②口 |①--②|
③口口① |--③-|
口③①口
口口口口

口口口口
口口口⑤
口口口口 |--④-|
口口口④ |⑤---|
31
口②②口 |①--②|
⑤①③口 |--③-|
①口口③ |--④-|
④口口口 |⑤---|
32
口②②⑤ |①--②|
口④口口 |--③-|
口口口口 |--④-|
③①①③ |⑤---|
33
⑤②②口 |①--②|
口口④口 |--③-|
口口口口 |--④-|
③①①③ |⑤---|
34
口⑤口② |①--②|
①④口② |--③-|
口①口口 |--④-|
口③③口 |⑤---|
35
②口⑤口 |①--②|
②口④① |--③-|
口口①口 |--④-|
口③③口 |⑤---|
36
②⑤⑤② |①--②|
口④④口 |--③-|
口口口口 |--④-|
①③③① |⑤---|
37
②口口② |①--②|
口④④口 |--③-|
④口口④ |④---|
①③③① |----|
38
口②②口 |①--②|
①口口③ |--③-|
口①③口
口口口口

口口口口
⑤口口口
口口口口 |--④-|
④口口口 |⑤---|
39
口②②口 |①--②|
口③①⑤ |--③-|
③口口① |--④-|
口口口④ |⑤---|
40
⑤②②口 |①--②|
口口④口 |--③-|
口口口口 |--④-|
③①①③ |⑤---|
41
口②②⑤ |①--②|
口④口口 |--③-|
口口口口 |--④-|
③①①③ |⑤---|
42
②口⑤口 |①--②|
②口④① |--③-|
口口①口 |--④-|
口③③口 |⑤---|
43
口⑤口② |①--②|
①④口② |--③-|
口①口口 |--④-|
口③③口 |⑤---|
44
②⑤⑤② |①--②|
口④④口 |--③-|
口口口口 |--④-|
①③③① |⑤---|
45
②口口② |①--②|
口④④口 |--③-|
④口口④ |④---|
①③③① |----|
46
口②口口 |①--②|
⑤口口口 |--③-|
④口口口 |--④-|
①口③口 |⑤---|
47
口口②口 |①--②|
口口口⑤ |--③-|
口口口④ |--④-|
口③口① |⑤---|
48
口②口口 |①--②|
⑤口口口 |--③-|
④口口口 |--④-|
①口③口 |⑤---|
49
口口②口 |①--②|
口口口⑤ |--③-|
口口口④ |--④-|
口③口① |⑤---|
50
口②口口 |①--②|
⑤口口口 |--③-|
④口口口 |--④-|
①口③口 |⑤---|
51
口口②口 |①--②|
口口口⑤ |--③-|
口口口④ |--④-|
口③口① |⑤---|
52
口②口口 |①--②|
⑤口口口 |--③-|
④口口口 |--④-|
①口③口 |⑤---|
53
口口②口 |①--②|
口口口⑤ |--③-|
口口口④ |--④-|
口③口① |⑤---|
54
口口口口 |----|
口口口口 |----|
口口口口 |----|
口口口口 |----|
55
口口口口 |----|
口①①口 |----|
口口口口 |-①--|
口①①口 |----|
56
①②②口 |①--②|
口口口③ |--③-|
①口口口
口口口③

⑤口口口
口口口口
口④口口 |--④-|
口口口口 |⑤---|
57
口②②① |①--②|
③口口口 |--③-|
口口口①
③口口口

口口口⑤
口口口口
口口④口 |--④-|
口口口口 |⑤---|
58
⑤②口口 |①--②|
口口②④ |--③-|
口①口口 |--④-|
③口①③ |⑤---|
59
口口②⑤ |①--②|
④②口口 |--③-|
口口①口 |--④-|
③①口③ |⑤---|
60
②口⑤口 |①--②|
口口②④ |--③-|
①口口口 |--④-|
③口①③ |⑤---|
61
口⑤口② |①--②|
④②口口 |--③-|
口口口① |--④-|
③①口③ |⑤---|
62
②⑤②⑤ |①--②|
④口④② |--③-|
①口口① |--④-|
③①口③ |⑤---|
63
②④②口 |①--②|
口口④② |--③-|
①④口① |④---|
③①④③ |----|
64
口②②① |①--②|
③口口口 |--③-|
口口口①
③口口口

口口口⑤
口口口口
口口④口 |--④-|
口口口口 |⑤---|
65
①②②口 |①--②|
口口口③ |--③-|
①口口口
口口口③

⑤口口口
口口口口
口④口口 |--④-|
口口口口 |⑤---|
66
口口②⑤ |①--②|
④②口口 |--③-|
口口①口 |--④-|
③①口③ |⑤---|
67
⑤②口口 |①--②|
口口②④ |--③-|
口①口口 |--④-|
③口①③ |⑤---|
68
口⑤口② |①--②|
④②口口 |--③-|
口口口① |--④-|
③①口③ |⑤---|
69
②口⑤口 |①--②|
口口②④ |--③-|
①口口口 |--④-|
③口①③ |⑤---|
70
⑤②⑤② |①--②|
②④口④ |--③-|
①口口① |--④-|
③口①③ |⑤---|
71
口②④② |①--②|
②④口口 |--③-|
①口④① |④---|
③④①③ |----|
72
口口④④ |①---|
口口③口 |②---|
口②②口 |③---|
口口①口 |④---|
73
④④口口 |①---|
口③口口 |②---|
口②②口 |③---|
口①口口 |④---|
74
口口④④ |①---|
口口③口 |②---|
口②②口 |③---|
①口口口 |④---|
75
口④④口 |①---|
③④④③ |②---|
③②②③ |③---|
口口口① |④---|

不確定度: 0

最終更新:2016年09月21日 01:07