STREET DANCER
SILKY F

ADVANCED

Level: 6
BPM: 138
Notes: 441

1
口口口口 |----|
口口口口 |----|
口口口口 |----|
口口口口 |----|
2
口口口⑦ |①-②-|
③①①⑤ |③---|
⑥口口口 |④-⑤-|
口④②口 |⑥-⑦-|
3
①口口口 |①---|
③口①② |②---|
口②③④ |③---|
口④口口 |④---|
4
①①口口 |①---|
口口口② |②-③-|
③③口口 |--④-|
口⑤口④ |⑤---|
5
⑦口②① |--①-|
口口③口 |②-③-|
口⑥口口 |④-⑤-|
④⑤口⑦ |⑥-⑦-|
6
口口口③ |----|
口口口口 |----|
②口口口 |--①-|
口口口① |②-③-|
7
①口口口 |①---|
③口①② |②---|
口②③④ |③---|
口④口口 |④---|
8
①①口口 |①---|
口口口② |②-③-|
③③口口 |--④-|
口⑤口④ |⑤---|
9
⑦口②① |--①-|
口口③口 |②-③-|
口⑥口口 |④-⑤-|
④⑤口⑦ |⑥-⑦-|
10
口口口口 |①---|
口①口口 |----|
口口①口 |----|
口口口口 |----|
11
口⑥④② |--①-|
口口口口 |②-③-|
口⑦⑦口 |④-⑤-|
①③⑤口 |⑥-⑦-|
12
③③③③ |①---|
①②②① |②---|
口口口口 |③---|
口口口口 |----|
13
②④⑥⑥ |--①-|
口口口口 |②-③-|
口口口口 |④---|
⑤⑤③① |⑤-⑥-|
14
口口口口 |①---|
①①②② |②---|
②②①① |③---|
③④④③ |④---|
15
①①①① |①---|
口口口口 |----|
口口口口 |----|
口口口口 |----|
16
①口口③ |--①-|
④④②② |②-③-|
口口口口 |④---|
口⑤⑤口 |⑤---|
17
口①①口 |①-②-|
口③口③ |----|
②口口② |----|
口口口口 |③---|
18
口②①口 |①---|
③口③口 |②---|
口②①口 |③-④-|
口④口④ |----|
19
口⑥④② |--①-|
口口口口 |②-③-|
口⑦⑦口 |④-⑤-|
①③⑤口 |⑥-⑦-|
20
③③③③ |①-②-|
口②②口 |--③-|
口口口口 |----|
①口口① |----|
21
②④⑥⑥ |--①-|
口口口口 |②-③-|
口口口口 |④---|
⑤⑤③① |⑤-⑥-|
22
⑤⑤⑤⑤ |①---|
①①②② |②---|
②②①① |③-④-|
③④④③ |--⑤-|
23
口口口口 |----|
口口口口 |----|
口口口口 |----|
口口口口 |----|
24
①口口③ |--①-|
④④②② |②-③-|
口口口口 |④---|
口⑤⑤口 |⑤---|
25
①①①① |①---|
口口口口 |----|
口口口口
口口口口

口口④口
口③②③
口口④口 |--②-|
口口口口 |③-④-|
26
口①口口 |①---|
②口②口 |②---|
口①口口 |③---|
口③口③ |----|
27
①口②口 |--①-|
口口口口 |②-③-|
口口⑤口 |④-⑤-|
口④口③ |----|
28
口③口口 |①---|
④②④② |②---|
口③口口 |③-④-|
①口①口 |----|
29
②口③口 |----|
口④口口 |①-②-|
口口口口 |③---|
口①口口 |--④-|
30
口①口① |①-②-|
②口④口 |--③-|
③⑤③⑤ |④-⑤-|
口口④口 |----|
31
①口②口 |--①-|
口口口口 |②-③-|
口⑥口⑤ |④---|
口④口③ |⑤-⑥-|
32
③④③口 |①---|
⑤②⑤② |②-③-|
口④口口 |④-⑤-|
①口①口 |----|
33
口口④④ |①---|
⑦口口③ |②-③-|
口⑥②② |④-⑤-|
口①⑤口 |⑥-⑦-|
34
④③②④ |①---|
④②③④ |②---|
口口①口 |③-④-|
口①口口 |----|
35
口口口② |----|
口口口口 |----|
口口口口 |----|
①口口① |①-②-|
36
①口口口 |①---|
③口①② |②---|
口②③④ |③---|
口④口口 |④---|
37
①①口口 |①---|
口口口② |②-③-|
③③口口 |--④-|
口⑤口④ |⑤---|
38
⑦口②① |--①-|
口口③口 |②-③-|
口⑥口口 |④-⑤-|
④⑤口⑦ |⑥-⑦-|
39
口口口③ |----|
口口口口 |----|
②口口口 |--①-|
口口口① |②-③-|
40
①口口口 |①---|
③口①② |②---|
口②③④ |③---|
口④口口 |④---|
41
①①口口 |①---|
口口口② |②-③-|
③③口口 |--④-|
口⑤口④ |⑤---|
42
⑦口②① |--①-|
口口③口 |②-③-|
口⑥口口 |④-⑤-|
④⑤口⑦ |⑥-⑦-|
43
口口口口 |①---|
口①口口 |----|
口口①口 |----|
口口口口 |----|
44
①口②口 |--①-|
口口口口 |②-③-|
口口⑤口 |④-⑤-|
口④口③ |----|
45
口③口口 |①---|
④②④② |②---|
口③口口 |③-④-|
①口①口 |----|
46
②口③口 |----|
口④口口 |①-②-|
口口口口 |③---|
口①口口 |--④-|
47
口①口① |①-②-|
②口④口 |--③-|
③⑤③⑤ |④-⑤-|
口口④口 |----|
48
①口②口 |--①-|
口口口口 |②-③-|
口⑥口⑤ |④---|
口④口③ |⑤-⑥-|
49
③④③口 |①---|
⑤②⑤② |②-③-|
口④口口 |④-⑤-|
①口①口 |----|
50
口口④④ |①---|
⑦口口③ |②-③-|
口⑥②② |④-⑤-|
口①⑤口 |⑥-⑦-|
51
口③②口 |①---|
④②③④ |②---|
口口①口 |③-④-|
口①口口 |----|
52
①口②口 |--①-|
口口口口 |②-③-|
口⑥⑤口 |④-⑤-|
口④口③ |--⑥-|
53
口④③口 |①---|
⑤②⑤② |②-③-|
口④③口 |④-⑤-|
①口①口 |----|
54
③口④口 |--①-|
口⑤口⑥ |②-③-|
口口口口 |④---|
口②口① |⑤-⑥-|
55
口①口① |①---|
②口④口 |②-③-|
③⑤③⑤ |④-⑤-|
口口④口 |----|
56
①口②口 |--①-|
口口口口 |②-③-|
口⑦⑤⑥ |④-⑤-|
口④口③ |⑥-⑦-|
57
③④③口 |①-②-|
⑤②⑤② |--③-|
口④口口 |④-⑤-|
①口①口 |----|
58
口口④④ |①---|
⑦口口③ |②-③-|
口⑥②② |④-⑤-|
口①⑤口 |⑥-⑦-|
59
④③②④ |①---|
④②③④ |②---|
口口①口 |③-④-|
口①口口 |----|
60
口口口口 |--①-|
④④②② |②---|
口口口口 |③-④-|
口①③口 |----|
61
①口口口 |--①-|
③口口② |②---|
口口口④ |③-④-|
口⑤⑤口 |--⑤-|
62
①①①① |①---|
口口口口 |----|
口口口口 |----|
口口口口 |----|


不确定度: 0

タグ:

+ タグ編集
  • タグ:

このサイトはreCAPTCHAによって保護されており、Googleの プライバシーポリシー利用規約 が適用されます。

最終更新:2012年11月10日 14:32