Switch On!
土屋アンナ

EXTREME

Level: 9
BPM: 190
Notes: 592

1
口口口口 |----|
口口口口 |----|
口口口口 |----|
口口口口 |----|
2
口口③口 |①-②-|
口口口③ |③---|
口①①口
口②②口

口④口口
④口⑤口
口口⑥⑤ |④-⑤-|
口口口⑥ |--⑥-|
3
③口②③ |①---|
口①③口 |----|
①口口② |②---|
口口口口 |③---|
4
口③口口 |①-②-|
③口口口 |③---|
口①①口
口②②口

口口④口
口⑤口④
⑤⑥口口 |④-⑤-|
⑥口口口 |--⑥-|
5
④③④② |①---|
口④①口 |--②-|
③口口① |③---|
口口口口 |④---|
6
③口口① |----|
④③①② |①---|
口④②口 |②-③-|
口口口口 |--④-|
7
口口口口 |①---|
③②③口 |----|
口③口① |②---|
②口①口 |③---|
8
②②①① |①---|
口②口① |----|
②口①① |②---|
②②①① |----|
9
口口口① |①---|
③②③① |----|
②③②① |②---|
③②口① |③---|
10
①④口① |①---|
口口口⑤ |--②-|
②口口③ |③---|
口②③口 |④-⑤-|
11
④口口⑤ |①-②-|
①口口口 |--③-|
口口②⑥ |--④-|
③③口口 |⑤-⑥-|
12
口口口口 |①-②-|
②⑥⑦③ |③-④-|
①口口口 |⑤-⑥-|
⑤口⑧④ |⑦-⑧-|
13
口口⑥⑤ |①-②-|
口口口⑦ |③-④-|
④②③口 |--⑤-|
口①口口 |⑥-⑦-|
14
⑤⑥口口 |①-②-|
⑦口①口 |③-④-|
口口③② |--⑤-|
口口口④ |⑥-⑦-|
15
口口口口 |①---|
口①口口 |②-③-|
②①口③ |----|
②①①③ |----|
16
口①②口 |①---|
口口口口 |----|
口口口口 |②---|
口②①口 |----|
17
口③口口 |①---|
口口①② |----|
①①①① |②---|
口口①① |--③-|
18
口口口口 |①-②-|
口④⑦口 |③---|
口口①口 |④-⑤-|
②⑥⑤③ |⑥-⑦-|
19
⑥口口口 |①-②-|
①口口④ |③-④-|
口③④② |--⑤-|
③⑤⑤口 |--⑥-|
20
口⑥①⑤ |①-②-|
②口③⑤ |③-④-|
④口口⑦ |⑤---|
口口口口 |⑥-⑦-|
21
⑦口口⑦ |①-②-|
③⑤⑥④ |③-④-|
口⑤⑤口 |⑤-⑥-|
①⑤⑤② |--⑦-|
22
口口口口 |----|
①口口口 |----|
口②①② |①---|
③口③口 |②-③-|
23
口口口④ |----|
③口④② |----|
①③②口 |①-②-|
口①口口 |③-④-|
24
①②②口 |①---|
口①口口 |----|
口④③口 |②---|
④口口③ |③-④-|
25
口①①口 |----|
②口口口 |----|
②口口口 |----|
口口口口 |①-②-|
26
口口口口 |①-②-|
口⑤⑥① |--③-|
口③④① |④---|
口②口口 |⑤-⑥-|
27
③①①③ |--①-|
④口口④ |--②-|
口②口口 |③---|
口口口口 |④---|
28
口口口口 |①-②-|
口口口口 |--③-|
①口口①
②③③口

口口口口
口口口口
⑥⑤⑤口 |④---|
口口口④ |⑤-⑥-|
29
口口口口 |--①-|
口②②① |②---|
⑦⑦口口 |③④⑤⑥|
⑤③④⑥ |⑦---|
30
①口口口 |①-②-|
②口口③ |--③-|
口⑤⑤④ |④---|
口⑥⑥口 |⑤-⑥-|
31
口①⑦⑦ |--①-|
口⑧②口 |②-③-|
③⑥⑤口 |④-⑤⑥|
口口口④ |⑦-⑧-|
32
口口口口 |①---|
①口②③ |②-③-|
口口口口
口口口口

口口口口
⑥⑥口口
口口⑤⑤ |--④-|
④④口口 |⑤-⑥-|
33
口①①⑦ |①---|
⑥⑥⑦口 |----|
口④口口 |②③④⑤|
口②③⑤ |⑥-⑦-|
34
口口口⑤ |----|
口⑥⑤① |①-②-|
口④①③ |③-④-|
②口③口 |⑤-⑥-|
35
②①①口 |①---|
②口口口 |②-③-|
口口口③
口口口③

口口⑥口
口⑥口口
口⑤④口 |--④-|
口④⑤口 |⑤-⑥-|
36
②①口② |①---|
③口①③ |②---|
④口口④ |③---|
口口口口 |④---|
37
②④④③ |①---|
⑤②③口 |②-③-|
口⑤口口 |--④-|
①口口① |--⑤-|
38
口口口口 |①---|
口口口② |②---|
口口②①
口口①口

口口口④
口③④口
③口口⑤ |③-④-|
口口⑤口 |--⑤-|
39
①①②口 |①---|
①②口② |--②-|
口①②口 |----|
①①口口 |----|
40
口①口口 |①---|
⑤②①口 |②---|
③口④口 |③-④-|
口③②④ |--⑤-|
41
口②②① |①---|
口口①② |②---|
口①口②
①口口口

③口口⑧
⑦④⑧口
⑤口口口 |③④⑤⑥|
口⑥口口 |⑦-⑧-|
42
口口口⑤ |----|
口⑥⑤① |①-②-|
口④①③ |③-④-|
②口③口 |⑤-⑥-|
43
②①①口 |①---|
②口口口 |②-③-|
口口口③
口口口③

口口⑥口
口⑥口口
口⑤④口 |--④-|
口④⑤口 |⑤-⑥-|
44
②①口② |①---|
③口①③ |②---|
④口口④ |③---|
口口口口 |④---|
45
②④④③ |①---|
⑤②③口 |②-③-|
口⑤口口 |--④-|
①口口① |--⑤-|
46
口口口口 |①---|
口口口② |②---|
口口②①
口口①口

口口口④
口③④口
③口口⑤ |③-④-|
口口⑤口 |--⑤-|
47
①①②口 |①---|
①②口② |--②-|
口①②口 |----|
①①口口 |----|
48
口①口口 |①---|
口口①口 |②---|
口口②口
口②口口

③⑤口④
口口口口
口口口口 |③-④-|
口口口口 |--⑤-|
49
口口口口 |①---|
②②①① |②---|
②①②口 |----|
②②①① |----|
50
①口口② |①---|
③口口④ |②-③-|
⑤①②口 |--④-|
⑤③④口 |⑤---|
51
口口口口 |----|
①④②口 |--①-|
口①口② |②---|
口口口③ |③-④-|
52
②口口① |①---|
④口口③ |②-③-|
口②①⑤ |--④-|
口④③⑤ |⑤---|
53
口①①口 |①---|
口①①口 |----|
口口口口
口口口口

口口口口
②⑦口③
④口口⑤ |②③④⑤|
⑥口口口 |⑥-⑦-|
54
①口口② |①---|
③口口④ |②-③-|
⑤①②口 |--④-|
⑤③④口 |⑤---|
55
口口口口 |----|
①④②口 |--①-|
口①口② |②---|
口口口③ |③-④-|
56
②口口① |①---|
④口口③ |②-③-|
口②①⑤ |--④-|
口④③⑤ |⑤---|
57
②①①② |①---|
口①①口 |----|
口④③口 |②---|
口③④口 |③-④-|
58
口②①口 |----|
②口③① |①---|
口口④③ |②-③-|
口口口④ |--④-|
59
③口②③ |①---|
口①③口 |----|
①口口② |②---|
口口口口 |③---|
60
口③口口 |①-②-|
③口口口 |③---|
口①①口
口②②口

口口④口
口⑤口④
⑤⑥口口 |④-⑤-|
⑥口口口 |--⑥-|
61
④③④② |①---|
口④①口 |--②-|
③口口① |③---|
口口口口 |④---|
62
口④口⑤ |①-②-|
④⑦⑧⑥ |③-④-|
⑦①口② |⑤-⑥-|
①口口③ |⑦-⑧-|
63
⑥⑤⑤⑥ |①-②-|
⑤⑥⑥⑤ |③-④-|
口②①③ |⑤---|
②口口④ |⑥---|
64
⑬⑦⑧⑭ |①②③④|
⑨⑮⑯⑩ |⑤⑥⑦⑧|
⑪①②⑫ |⑨⑩⑪⑫|
⑤③④⑥ |⑬⑭⑮⑯|
65
口⑤⑥口 |①②③④|
⑦口口⑧ |⑤⑥⑦⑧|
⑩①②⑩ |⑨---|
③⑨⑨④ |⑩---|
66
①口口① |①---|
口①①口 |----|
口①①口 |----|
口口口口 |----|

不確定度: 0

タグ:

+ タグ編集
  • タグ:

このサイトはreCAPTCHAによって保護されており、Googleの プライバシーポリシー利用規約 が適用されます。

最終更新:2014年08月01日 01:29