負けないよ…-Runners High-
猫大樹

EXTREME

Level: 10
BPM: 155
Notes: 924

1
口口口口 |----|
口口口口 |----|
口口口口 |----|
口口口口 |----|
2
口⑨口⑧ |①②③④|
③口④口 |-⑤⑥-|
①⑪②⑩ |⑦-⑧⑨|
⑦⑤口⑥ |-⑩⑪-|
3
⑥⑧口⑦ |①②-③|
②口①③ |-④⑤-|
④⑩⑤⑨ |⑥-⑦⑧|
口口口口 |-⑨⑩-|
4
口⑤③口 |①-②-|
口③⑤口 |③---|
口口④口 |④---|
②④口① |⑤---|
5
④口②④ |①---|
口②口口 |②---|
口①口口 |③---|
③口①③ |④---|
6
口⑨口⑧ |①②③④|
③口④口 |-⑤⑥-|
①⑪②⑩ |⑦-⑧⑨|
⑦⑤口⑥ |-⑩⑪-|
7
⑥⑧口⑦ |①②-③|
②口①③ |-④⑤-|
④⑩⑤⑨ |⑥-⑦⑧|
口口口口 |-⑨⑩-|
8
口⑤③口 |①-②-|
口③⑤口 |③---|
口口④口 |④---|
②④口① |⑤---|
9
④口②④ |①---|
口②口口 |②---|
口①口口 |③---|
③口①③ |④---|
10
⑤①口⑦ |①--②|
②⑥⑧④ |--③-|
③口口① |④-⑤⑥|
口③②口 |-⑦⑧-|
11
⑧口口⑩ |①②③④|
①⑨⑪④ |-⑤⑥-|
⑤②③⑦ |⑦-⑧⑨|
口⑥口口 |-⑩⑪-|
12
④⑤①口 |①--②|
口⑤口② |--③-|
①口④③ |④---|
口②③口 |⑤---|
13
口口②① |①---|
口口②口 |②---|
口①口口
口口口口

③口口④
口口口口
口口口口 |③---|
④口口③ |④---|
14
⑦口①⑤ |①--②|
④⑧⑥② |--③-|
①口口③ |④-⑤⑥|
口②③口 |-⑦⑧-|
15
⑩口口⑧ |①②③④|
④⑪⑨① |-⑤⑥-|
⑦③②⑤ |⑦-⑧⑨|
口口⑥口 |-⑩⑪-|
16
口①⑤④ |①--②|
②口⑤口 |--③-|
③④口① |④---|
口③②口 |⑤---|
17
①②口口 |①---|
口②口口 |②---|
口口①口
口口口口

④口口③
口口口口
口口口口 |③---|
③口口④ |④---|
18
⑤①口⑦ |①--②|
②⑥⑧④ |--③-|
③口口① |④-⑤⑥|
口③②口 |-⑦⑧-|
19
⑧口口⑩ |①②③④|
①⑨⑪④ |-⑤⑥-|
⑤②③⑦ |⑦-⑧⑨|
口⑥口口 |-⑩⑪-|
20
④⑤①口 |①--②|
口⑤口② |--③-|
①口④③ |④---|
口②③口 |⑤---|
21
口口②① |①---|
口口②口 |②---|
口①口口
口口口口

③口口④
口口口口
口口口口 |③---|
④口口③ |④---|
22
⑦口①⑤ |①--②|
④⑧⑥② |--③-|
①口口③ |④-⑤⑥|
口②③口 |-⑦⑧-|
23
⑩口口⑧ |①②③④|
④⑪⑨① |-⑤⑥-|
⑦③②⑤ |⑦-⑧⑨|
口口⑥口 |-⑩⑪-|
24
口①⑤④ |①--②|
②口⑤口 |--③-|
③④口① |④---|
口③②口 |⑤---|
25
①②口口 |①---|
口②口口 |②---|
口口①口
口口口口

④口口③
口口口口
口口口口 |③---|
③口口④ |④---|
26
口②④口 |①---|
口④②口 |②---|
口口口口 |③---|
口①③口 |④---|
27
②口口④ |①---|
④口口② |②---|
口口口口 |③---|
①口口③ |④---|
28
⑨①②⑩ |①②③④|
⑪③④⑫ |⑤⑥⑦⑧|
⑬⑤⑥⑭ |⑨⑩⑪⑫|
⑮⑦⑧⑯ |⑬⑭⑮⑯|
29
③口口③ |①---|
口①②口 |②---|
③②①③ |③---|
口口口口 |----|
30
口①③口 |①②-③|
④③①口 |④-⑤⑥|
口口⑥⑤
③口②①

⑨⑨口⑨
口口⑨⑧
⑧⑦口口 |⑦-⑧-|
口⑧口口 |⑨---|
31
口口③口 |①②-③|
①口⑥⑤ |④-⑤⑥|
口④③③
①口①②

口⑩口⑧
⑨⑦口口
⑧口口⑩ |⑦-⑧-|
口⑧⑨口 |⑨-⑩-|
32
⑤口①口 |①②-③|
⑥③④③ |④-⑤⑥|
口①②口
口口口口

口⑩口口
口口口口
⑦口⑩⑨ |⑦⑧⑨-|
⑧口⑨⑩ |⑩---|
33
口口①③ |①②-③|
口口④② |④-⑤⑥|
口①口⑥
口③⑤口

口⑪⑩⑪
⑪⑨口⑩
口口⑧口 |⑦⑧⑨-|
⑩口口⑦ |⑩-⑪-|
34
③⑩⑥口 |①②-③|
⑩⑤⑨⑦ |-④⑤⑥|
①③④⑧ |⑦⑧⑨-|
口①②⑩ |⑩---|
35
口⑥口③ |①②-③|
口口⑤口 |-④⑤⑥|
口④③口
①②①口

口口⑪⑪
⑦⑨口⑩
⑧口口⑩ |⑦⑧⑨-|
⑪⑩口口 |⑩-⑪-|
36
④⑥⑪⑬ |①②③④|
⑧⑬③⑨ |⑤⑥⑦⑧|
⑫②⑦⑬ |⑨⑩⑪⑫|
口⑩⑤① |⑬---|
37
③⑨口⑩ |①②③④|
⑤口②⑧ |⑤⑥⑦⑧|
⑨⑦⑩⑩ |⑨---|
①口④⑥ |⑩---|
38
口③①口 |①②-③|
口①③④ |④-⑤⑥|
⑤⑥口口
①②口③

⑨口⑨⑨
⑧⑨口口
口口⑦⑧ |⑦-⑧-|
口口⑧口 |⑨---|
39
口③口口 |①②-③|
⑤⑥口① |④-⑤⑥|
③③④口
②①口①

⑧口⑩口
口口⑦⑨
⑩口口⑧ |⑦-⑧-|
口⑨⑧口 |⑨-⑩-|
40
口①口⑤ |①②-③|
③④③⑥ |④-⑤⑥|
口②①口
口口口口

口口⑩口
口口口口
⑨⑩口⑦ |⑦⑧⑨-|
⑩⑨口⑧ |⑩---|
41
③①口口 |①②-③|
②④口口 |④-⑤⑥|
⑥口①口
口⑤③口

⑪⑩⑪口
⑩口⑨⑪
口⑧口口 |⑦⑧⑨-|
⑦口口⑩ |⑩-⑪-|
42
口⑥⑩③ |①②-③|
⑦⑨⑤⑩ |-④⑤⑥|
⑧④③① |⑦⑧⑨-|
⑩②①口 |⑩---|
43
③口⑥口 |①②-③|
口⑤口口 |-④⑤⑥|
口③④口
口①②①

⑪⑪口口
⑩口⑨⑦
⑩口口⑧ |⑦⑧⑨-|
口口⑩⑪ |⑩-⑪-|
44
⑬⑪⑥④ |①②③④|
⑨③⑬⑧ |⑤⑥⑦⑧|
⑬⑦②⑫ |⑨⑩⑪⑫|
①⑤⑩口 |⑬---|
45
⑩口⑨③ |①②③④|
⑧②⑩⑤ |⑤⑥⑦⑧|
⑩口⑦⑨ |⑨---|
⑥④⑩① |⑩---|
46
口口口③ |①②-③|
口口口④ |④-⑤⑥|
口⑤⑥口
①②口口

口⑧⑧口
口⑦口口
口口口口 |⑦---|
⑧⑧口口 |⑧---|
47
③口口口 |①②-③|
④口口口 |④-⑤⑥|
口⑥⑤口
口口②①

口⑧⑧口
口口⑦口
口口口口 |⑦---|
口口⑧⑧ |⑧---|
48
口口口③ |①②-③|
口口口④ |④-⑤⑥|
口⑤⑥口
①②口口

口⑧⑧口
口⑦口口
口口口口 |⑦---|
⑧⑧口口 |⑧---|
49
③口口口 |①②-③|
④口口口 |④-⑤⑥|
口⑥⑤口
口口②①

口⑧⑧口
口口⑦口
口口口口 |⑦---|
口口⑧⑧ |⑧---|
50
口口口③ |①②-③|
口口口④ |④-⑤⑥|
口⑤⑥口
①②口口

口⑧口口
口⑦⑧口
⑧口口口 |⑦---|
口⑧口口 |⑧---|
51
③口口口 |①②-③|
④口口口 |④-⑤⑥|
口⑥⑤口
口口②①

口口⑧口
口⑧⑦口
口口口⑧ |⑦---|
口口⑧口 |⑧---|
52
口口口③ |①②-③|
口口口④ |④-⑤⑥|
口⑤⑥口
①②口口

口⑧口口
口⑦⑧口
⑧口口口 |⑦---|
口⑧口口 |⑧---|
53
③口口口 |①②-③|
④口口口 |④-⑤⑥|
口⑥⑤口
口口②①

口口⑧口
口⑧⑦口
口口口⑧ |⑦---|
口口⑧口 |⑧---|
54
口口口口 |----|
口口口口 |----|
口口口口 |----|
口口口口 |----|
55
①口口① |----|
①口口① |----|
口①①口 |-①--|
口口口口 |----|
56
口③①口 |①②-③|
口①③④ |④-⑤⑥|
⑤⑥口口
①②口③

⑨口⑨⑨
⑧⑨口口
口口⑦⑧ |⑦-⑧-|
口口⑧口 |⑨---|
57
口③口口 |①②-③|
⑤⑥口① |④-⑤⑥|
③③④口
②①口①

⑧口⑩口
口口⑦⑨
⑩口口⑧ |⑦-⑧-|
口⑨⑧口 |⑨-⑩-|
58
口①口⑤ |①②-③|
③④③⑥ |④-⑤⑥|
口②①口
口口口口

口口⑩口
口口口口
⑨⑩口⑦ |⑦⑧⑨-|
⑩⑨口⑧ |⑩---|
59
③①口口 |①②-③|
②④口口 |④-⑤⑥|
⑥口①口
口⑤③口

⑪⑩⑪口
⑩口⑨⑪
口⑧口口 |⑦⑧⑨-|
⑦口口⑩ |⑩-⑪-|
60
口⑥⑩③ |①②-③|
⑦⑨⑤⑩ |-④⑤⑥|
⑧④③① |⑦⑧⑨-|
⑩②①口 |⑩---|
61
③口⑥口 |①②-③|
口⑤口口 |-④⑤⑥|
口③④口
口①②①

⑪⑪口口
⑩口⑨⑦
⑩口口⑧ |⑦⑧⑨-|
口口⑩⑪ |⑩-⑪-|
62
⑬⑪⑥④ |①②③④|
⑨③⑬⑧ |⑤⑥⑦⑧|
⑬⑦②⑫ |⑨⑩⑪⑫|
①⑤⑩口 |⑬---|
63
⑩口⑨③ |①②③④|
⑧②口⑤ |⑤⑥⑦⑧|
⑩⑩⑦⑨ |⑨---|
⑥④口① |⑩---|
64
口①③口 |①②-③|
④③①口 |④-⑤⑥|
口口⑥⑤
③口②①

⑨⑨口⑨
口口⑨⑧
⑧⑦口口 |⑦-⑧-|
口⑧口口 |⑨---|
65
口口③口 |①②-③|
①口⑥⑤ |④-⑤⑥|
口④③③
①口①②

口⑩口⑧
⑨⑦口口
⑧口口⑩ |⑦-⑧-|
口⑧⑨口 |⑨-⑩-|
66
⑤口①口 |①②-③|
⑥③④③ |④-⑤⑥|
口①②口
口口口口

口⑩口口
口口口口
⑦口⑩⑨ |⑦⑧⑨-|
⑧口⑨⑩ |⑩---|
67
口口①③ |①②-③|
口口④② |④-⑤⑥|
口①口⑥
口③⑤口

口⑪⑩⑪
⑪⑨口⑩
口口⑧口 |⑦⑧⑨-|
⑩口口⑦ |⑩-⑪-|
68
③⑩⑥口 |①②-③|
⑩⑤⑨⑦ |-④⑤⑥|
①③④⑧ |⑦⑧⑨-|
口①②⑩ |⑩---|
69
口⑥口③ |①②-③|
口口⑤口 |-④⑤⑥|
口④③口
①②①口

口口⑪⑪
⑦⑨口⑩
⑧口口⑩ |⑦⑧⑨-|
⑪⑩口口 |⑩-⑪-|
70
④⑥⑪⑬ |①②③④|
⑧⑬③⑨ |⑤⑥⑦⑧|
⑫②⑦⑬ |⑨⑩⑪⑫|
口⑩⑤① |⑬---|
71
③⑨口⑩ |①②③④|
⑤⑩②⑧ |⑤⑥⑦⑧|
⑨⑦口⑩ |⑨---|
①⑩④⑥ |⑩---|
72
②③①④ |①---|
口③①口 |②---|
②③①④ |③---|
口③①口 |④---|
73
②③①④ |①---|
口③①口 |②---|
口③①口 |③---|
②③①④ |④---|
74
②③①④ |①---|
口③①口 |②---|
②③①④ |③---|
口③①口 |④---|
75
①③②③ |①---|
①口③② |②---|
①③②③ |③---|
①口②② |----|

不確定度: 0

最終更新:2016年09月21日 01:07