制作現場での出来事
猫大樹

EXTREME

Level: 9
BPM: 150
Notes: 728

1
口口口口 |----|
口口口口 |----|
口口口口 |----|
口口口口 |----|
2
③⑦⑦口 |①②-③|
④口口口 |④-⑤-|
⑥口⑤口 |⑥---|
①②口口 |⑦---|
3
口⑦⑦③ |①②-③|
口口口④ |④-⑤-|
口⑤口⑥ |⑥---|
口口②① |⑦---|
4
③⑦⑦口 |①②-③|
④口口口 |④-⑤-|
⑥口⑤口 |⑥---|
①②口口 |⑦---|
5
口⑦⑦③ |①②-③|
口口口④ |④-⑤-|
口⑤口⑥ |⑥---|
口口②① |⑦---|
6
口口口① |①---|
口口口① |②-③-|
②口口口
①口口③

⑥口口口
④口④⑦
口口⑤⑥ |④-⑤-|
口口口口 |⑥-⑦-|
7
口①口① |①---|
口②口口 |②-③-|
口④口口 |④---|
口⑤③② |⑤---|
8
⑥口①① |①---|
④口口⑦ |②-③-|
②口⑤⑥ |④-⑤-|
①口④③ |⑥-⑦-|
9
口①口① |①---|
口②口口 |②-③-|
口④口口 |④---|
口⑤③② |⑤---|
10
口口口① |①---|
口口①口 |②-③-|
②口口口
①口口③

⑥口⑥口
④口⑦⑤
口口④口 |④-⑤-|
口口口口 |⑥-⑦-|
11
口①口① |①---|
口②口口 |②-③-|
口④口口 |④---|
口⑤③② |⑤---|
12
口口①口 |①---|
口口口① |②-③-|
②口口口
①口口③

⑥口口口
④口口⑦
口口⑤⑥ |④-⑤-|
口口④口 |⑥-⑦-|
13
口①口① |①---|
口②①口 |②---|
口③口口 |③---|
口④口口 |④---|
14
①口口口 |①---|
①口口口 |②-③-|
口口口②
③口口①

口口口⑥
⑦④口④
⑥⑤口口 |④-⑤-|
口口口口 |⑥-⑦-|
15
①②①口 |①-②-|
口③③口 |③-④-|
口④⑤口 |⑤---|
口口⑥口 |⑥---|
16
①①口⑥ |①---|
⑦口口④ |②-③-|
⑥⑤口② |④-⑤-|
③④口① |⑥-⑦-|
17
①口①口 |①---|
口口②口 |②-③-|
口口④口 |④---|
②③⑤口 |⑤---|
18
①口口口 |①---|
口①口口 |②-③-|
口口口②
③口口①

口⑥口⑥
⑤⑦口④
口④口口 |④-⑤-|
口口口口 |⑥-⑦-|
19
①口①口 |①---|
口口②口 |②-③-|
口口④口 |④---|
②③⑤口 |⑤---|
20
口①口口 |①---|
①口口④ |②-③-|
口⑤口② |④-⑤-|
③④口① |----|
21
①口口② |①---|
口口口口 |②---|
口口口口 |③---|
④口口③ |④---|
22
①口口口 |①-②-|
③口口口 |③-④-|
口口②④
口口②④

口口⑥⑥
口⑦⑦口
⑤⑧⑧口 |⑤-⑥-|
口口口口 |⑦-⑧-|
23
⑦口口⑤ |①-②-|
③口口① |③-④-|
口⑥⑧口 |⑤-⑥-|
口②④口 |⑦-⑧-|
24
③口①④ |①---|
口①口口 |②---|
①口口口 |③---|
②口口口 |④---|
25
口口口口 |①---|
口口口口 |②---|
口①①口
②口口①

③口口口
⑤口④口
口口⑥口 |③-④-|
口口口口 |⑤-⑥-|
26
口口口① |①-②-|
口口口③ |③-④-|
④②口口
④②口口

⑥⑥口口
口⑦⑦口
口⑧⑧⑤ |⑤-⑥-|
口口口口 |⑦-⑧-|
27
⑤口口⑦ |①-②-|
①口口③ |③-④-|
口⑧⑥口 |⑤-⑥-|
口④②口 |⑦-⑧-|
28
④①口③ |①---|
口口①口 |②---|
口口口① |③---|
口口口② |④---|
29
口口口口 |①---|
口口口口 |②---|
口①①口
①口口②

口口口③
口口口口
口④口口 |③---|
口口④口 |④---|
30
①口口⑥ |①-②③|
⑦③⑧② |-④⑤-|
口口口口 |⑥-⑦⑧|
⑨⑤⑩④ |-⑨⑩-|
31
①口口⑥ |①-②③|
⑦③⑧② |-④⑤-|
口口口口 |⑥-⑦⑧|
⑨⑤⑩④ |-⑨⑩-|
32
①口口⑥ |①-②③|
⑦③⑧② |-④⑤-|
口口口口 |⑥-⑦⑧|
⑨⑤⑩④ |-⑨⑩-|
33
①口口⑥ |①-②③|
⑦③⑧② |-④⑤-|
口口口口 |⑥-⑦⑧|
⑨⑤⑩④ |-⑨⑩-|
34
①⑩②⑩ |①②-③|
⑥③⑦④ |④-⑤-|
口⑧口⑨ |⑥⑦-⑧|
口⑤口⑤ |⑨-⑩-|
35
①⑩②⑩ |①②-③|
⑥③⑦④ |④-⑤-|
口⑧口⑨ |⑥⑦-⑧|
口⑤口⑤ |⑨-⑩-|
36
①⑩②⑩ |①②-③|
⑥③⑦④ |④-⑤-|
口⑧口⑨ |⑥⑦-⑧|
口⑤口⑤ |⑨-⑩-|
37
①口②口 |①②-③|
口③口④ |④-⑤-|
口口口口
口⑤口⑤

⑦口口⑦
口口⑥口
口⑥口口 |⑥---|
口口口口 |⑦---|
38
口①口口 |①-②③|
口⑦④① |④⑤⑥⑦|
①③⑥⑤
②口①口

⑧口⑨口
⑨口口口
口⑫口口 |⑧-⑨-|
口⑩⑪口 |⑩⑪⑫-|
39
④口⑫⑤ |①②③④|
⑥⑩口③ |⑤⑥⑦⑧|
②口⑪⑦ |⑨-⑩-|
⑧⑨口① |⑪-⑫-|
40
③①口② |①-②-|
①口①口 |--③-|
口①口口
②口口③

口⑤口口
口口口④
④口口口 |--④-|
口口⑤口 |--⑤-|
41
②口口④ |①-②-|
口口口口 |③-④-|
口口口口
①口口③

⑧口口口
口⑤⑦口
⑥口⑤口 |⑤-⑥-|
口口口口 |⑦-⑧-|
42
口口①口 |①-②③|
①④⑦口 |④⑤⑥⑦|
⑤⑥③①
口①口②

口⑨口⑧
口口口⑨
口口⑫口 |⑧-⑨-|
口⑪⑩口 |⑩⑪⑫-|
43
⑤⑫口④ |①②③④|
③口⑩⑥ |⑤⑥⑦⑧|
⑦⑪口② |⑨-⑩-|
①口⑨⑧ |⑪-⑫-|
44
②口①③ |①-②-|
口①口① |--③-|
口口①口
③口口②

口口⑤口
④口口口
口口口④ |--④-|
口⑤口口 |--⑤-|
45
④⑧⑥② |①-②-|
口口口口 |③-④-|
口口口口 |⑤-⑥-|
③⑦⑤① |⑦-⑧-|
46
⑧口⑥⑤ |①②-③|
口口④③ |④-⑤⑥|
口口②① |⑦---|
⑦口口⑧ |⑧---|
47
⑧口⑥⑤ |①②-③|
口口④③ |④-⑤⑥|
口口②① |⑦---|
⑦口口⑧ |⑧---|
48
⑦口⑥⑤ |①②-③|
口口④③ |④-⑤⑥|
口口②① |⑦---|
⑧口口⑧ |⑧---|
49
⑦口⑥⑤ |①②-③|
口口④③ |④-⑤⑥|
口口②① |⑦---|
⑧口口⑧ |⑧---|
50
⑤⑥口⑧ |①②-③|
③④口口 |④-⑤⑥|
①②口口 |⑦---|
⑧口口⑦ |⑧---|
51
⑤⑥口⑧ |①②-③|
③④口口 |④-⑤⑥|
①②口口 |⑦---|
⑧口口⑦ |⑧---|
52
⑤⑥口⑦ |①②-③|
③④口口 |④-⑤⑥|
①②口口 |⑦---|
⑧口口⑧ |⑧---|
53
口②口口 |①---|
①口口口 |②---|
口②口口
口口口口

④口③④
④口③④
口口③口 |③---|
口口口口 |④---|
54
口①口口 |①-②-|
口③口口 |③-④-|
①口④②
口③②④

⑤⑦口⑥
口口⑥⑦
⑦⑤口口 |⑤-⑥-|
口口口口 |⑦---|
55
口口①④ |①-②-|
口①④口 |③-④-|
口口②③
口②③口

⑦⑤⑦口
⑤⑦口口
口⑥口口 |⑤-⑥-|
⑥口口口 |⑦---|
56
⑦⑥⑤口 |①-②-|
⑥口④③ |③-④-|
⑤④口② |⑤-⑥-|
口③②① |⑦---|
57
口口口口 |①-②-|
口口④② |③-④-|
口④③①
口②①口

口口口⑤
口⑥口口
⑥口口⑥ |⑤---|
⑤口⑥口 |⑥---|
58
口③②④ |①-②-|
①口④② |③-④-|
口③口口
口①口口

口口口口
⑦⑤口口
口口⑥⑦ |⑤-⑥-|
⑤⑦口⑥ |⑦---|
59
口②③口 |①-②-|
口口②③ |③-④-|
口①④口
口口①④

⑥口口口
口⑥口口
⑤⑦口口 |⑤-⑥-|
⑦⑤⑦口 |⑦---|
60
口③②① |①-②-|
⑤④口② |③-④-|
⑥口④③ |⑤-⑥-|
⑦⑥⑤口 |⑦---|
61
口②①口 |①-②-|
口④③① |③-④-|
口口④②
口口口口

⑤口⑥口
⑥口口⑥
口⑥口口 |⑤---|
口口口⑤ |⑥---|
62
③⑤⑦① |①-②-|
⑦③①⑤ |③-④-|
③⑦⑤① |⑤-⑥-|
⑧④②⑥ |⑦-⑧-|
63
③⑤⑥① |①-②-|
⑥①③⑤ |③-④-|
③口口① |⑤---|
⑥④②⑤ |⑥---|
64
③⑤⑦① |①-②-|
⑦③①⑤ |③-④-|
③⑦⑤① |⑤-⑥-|
⑧④②⑥ |⑦-⑧-|
65
③⑤⑥① |①-②-|
⑥①③⑤ |③-④-|
③口口① |⑤---|
⑥④②⑤ |⑥---|
66
③⑦⑤① |①-②-|
⑦③①⑤ |③-④-|
①⑤⑦③ |⑤-⑥-|
⑧④②⑥ |⑦-⑧-|
67
③⑤⑥① |①-②-|
口③①口 |③-④-|
①⑥⑤③ |⑤---|
⑥②④⑤ |⑥---|
68
③⑦⑤① |①-②-|
⑦①③⑤ |③-④-|
①⑤⑦③ |⑤-⑥-|
⑧④②⑥ |⑦-⑧-|
69
③口口① |①-②-|
口③①口 |③-④-|
①口口③
口②④口

口⑥⑤⑥
⑥口⑥⑤
口⑥⑤口 |⑤---|
口口口⑤ |⑥---|

不確定度: 0

最終更新:2016年09月21日 01:05