夏休み is freedom!!
猫大樹

EXTREME

Level: 9
BPM: 155
Notes: 684

1
口口口口 |----|
口口口口 |----|
口口口口 |----|
口口口口 |----|
2
口口口口 |----|
口④②口 |----|
口①③口 |①-②-|
口口口口 |③-④-|
3
口口口② |①---|
口④⑥口 |②---|
①⑤③口 |③-④-|
口口口口 |⑤-⑥-|
4
②口口口 |①---|
口口口口 |②---|
口口口①
口口口口

口③④口
④口口③
③口口④ |③---|
口④③口 |④---|
5
③口口① |①---|
口④②口 |②---|
口②④口 |③---|
①口口③ |④---|
6
口口口口 |①---|
口⑤③口 |----|
①②④① |②-③-|
口①①口 |④-⑤-|
7
口口口② |①---|
口④⑥口 |②---|
①⑤③② |③-④-|
口口口口 |⑤-⑥-|
8
②④③口 |①---|
口⑤⑥口 |②---|
②口口① |③-④-|
口口口口 |⑤-⑥-|
9
口口口口 |①---|
口②③口 |----|
①口口① |②---|
口③②口 |③---|
10
①④④① |①---|
①口口① |②---|
口口口口 |③---|
③口口② |④---|
11
口口口① |----|
口口①口 |----|
口①口口 |----|
①口口口 |①---|
12
口⑥④⑥ |①②③④|
⑧③口口 |--⑤-|
口⑨②⑤ |--⑥-|
口⑦口① |⑦-⑧⑨|
13
②口⑧④ |①--②|
口②④⑦ |--③-|
口口⑥口 |--④-|
③⑤①③ |⑤⑥⑦⑧|
14
口口口④ |①--②|
⑧①⑤⑦ |--③-|
③⑥口② |④⑤⑥-|
②⑧⑦③ |⑦-⑧-|
15
①口①口 |①--②|
口口口口 |--③-|
②口口③
③口口②

口④⑪口
口⑩⑤口
口⑥⑨口 |④⑤⑥⑦|
口⑧⑦口 |⑧⑨⑩⑪|
16
口口口② |①--②|
③口口① |--③-|
口口口②
口口口口

④口口口
口口口⑥
④口⑦口 |--④-|
口口⑤口 |⑤-⑥⑦|
17
④⑧口② |①--②|
⑦④②口 |--③-|
口⑥口口 |--④-|
③①⑤③ |⑤⑥⑦⑧|
18
④口口口 |①--②|
⑦⑤①⑧ |--③-|
②口⑥③ |④⑤⑥-|
③⑦⑧② |⑦-⑧-|
19
口①口① |①---|
②口口⑤ |----|
口③④口 |②-③-|
口口口口 |④-⑤-|
20
口①①② |①--②|
口口口口 |--③-|
口口口②
③口口③

④口⑤口
口口口口
④⑤口口 |--④-|
口口口口 |⑤---|
21
③①口② |①---|
②口口③ |②---|
③口①② |③---|
口④④口 |④---|
22
②①①④ |①--②|
口口口口 |--③-|
②口口④ |--④-|
③⑤⑤③ |⑤---|
23
①口口② |①---|
③①②⑥ |--②-|
①④⑤② |③-④-|
口口口口 |⑤-⑥-|
24
②①①④ |①--②|
⑤口口口 |--③-|
②口⑤④ |--④-|
口③③口 |⑤---|
25
口口口口 |①---|
口③②① |②---|
②①口③ |③---|
口④④口 |④---|
26
④①①② |①--②|
口口口口 |--③-|
④口口② |--④-|
③⑤⑤③ |⑤---|
27
口①①口 |①---|
⑥口口③ |--②-|
口⑤④口 |③-④-|
②口口② |⑤-⑥-|
28
②①①口 |①--②|
口口口口 |--③-|
②口口口
③口口③

口⑤口④
口口口口
口口⑤④ |--④-|
口口口口 |⑤---|
29
②口①③ |①---|
③口口② |②---|
②①口③ |③---|
口④④口 |④---|
30
④①①② |①--②|
口口口口 |--③-|
④口口② |--④-|
③⑤⑤③ |⑤---|
31
②口口① |①---|
⑥②①③ |--②-|
②⑤④① |③-④-|
口口口口 |⑤-⑥-|
32
④①①② |①--②|
口口口⑤ |--③-|
④⑤口② |--④-|
口③③口 |⑤---|
33
口口口口 |①---|
①②③口 |②---|
③口①② |③---|
口④④口 |④---|
34
②①①④ |①--②|
口口口口 |--③-|
②口口④ |--④-|
③⑤⑤③ |⑤---|
35
口①①口 |①---|
口口口口 |--②-|
口口口口 |----|
②口口② |----|
36
①口口② |①-②-|
④③③口 |③---|
⑤口口④ |④-⑤-|
⑥口⑥⑤ |⑥---|
37
②口口① |①-②-|
口③③口 |③---|
④⑥口⑤ |④-⑤-|
⑤口⑥④ |⑥---|
38
②口口① |①-②-|
口③③④ |③---|
④口口⑤ |④-⑤-|
⑤⑥口⑥ |⑥---|
39
①①口② |①---|
口①②② |②---|
口①②口
口口口口

口口口口
④口口口
④④口③ |③---|
④③③③ |④---|
40
②口口① |①-②-|
口③③④ |③---|
④口口⑤ |④-⑤-|
⑤⑥口⑥ |⑥---|
41
①口口② |①-②-|
口③③口 |③-④-|
⑤⑦⑥④ |⑤-⑥-|
④⑥⑦⑤ |⑦---|
42
②口口① |①-②-|
口③③口 |③---|
⑤④⑤④ |④-⑤-|
⑥口⑥口 |⑥---|
43
口②口口 |①---|
②①②① |②---|
口②口口
口①口①

③口④③
口④口④
③口④③ |③---|
口口口口 |④---|
44
②③③② |①---|
口③③口 |----|
②③③② |②---|
①①①① |③---|
45
②口口口 |①---|
②口口② |②---|
口口口②
①①①口

口③③口
口④口口
④⑥⑤口 |③-④-|
口⑤⑥口 |⑤-⑥-|
46
口②②口 |①---|
②口①口 |②---|
口口口①
口口口口

口口口口
口⑤口⑥
④⑥③⑤ |③-④-|
③口④口 |⑤-⑥-|
47
口口口口 |①---|
口口口口 |----|
口口口口
口①口①

口②③口
②口口③
③口口② |②---|
口③②口 |③---|
48
②④⑤② |①---|
④①①⑤ |②---|
⑥①①③ |③-④-|
①⑥③① |⑤-⑥-|
49
②④⑤② |①---|
④②②⑤ |②---|
⑥口口③ |③-④-|
①⑥③① |⑤-⑥-|
50
②③⑥② |①---|
④②②⑤ |②---|
⑤口口④ |③-④-|
①⑥③① |⑤-⑥-|
51
口口口① |①---|
口口①口 |②---|
口①口口
口口口②

③口口口
口③④口
口④③口 |③---|
④口口口 |④---|
52
口①口口 |①---|
口口口① |②---|
①口口口
口口①②

口⑤④口
口⑦⑥口
口口口口 |③---|
③口口口 |④⑤⑥⑦|
53
②口口① |①---|
③口口③ |--②-|
口②①口 |----|
口①②口 |③---|
54
②口②② |①---|
⑤口口③ |--②-|
口⑤③④ |--③-|
①①④① |④-⑤-|
55
口口④④ |①---|
口口④口 |②---|
①口④口 |③-④-|
③①口② |----|
56
口①口口 |①---|
④①口④ |②---|
①①口口 |③---|
③口口② |④---|
57
口①②口 |①---|
③口口③ |--②-|
①口口② |----|
口②①口 |③---|
58
①口口② |①---|
口①②口 |--②-|
口口口口
②②①①

口③口口
③④口口
④口口⑤ |--③-|
口口⑤口 |④-⑤-|
59
②口口③ |①---|
口口口① |②---|
④口①④ |③-④-|
④口口④ |----|
60
②①①③ |①---|
④①口⑤ |----|
⑥①①⑦ |②③④⑤|
⑧①口⑨ |⑥⑦⑧⑨|
61
⑦①⑪⑥ |①②③④|
⑪⑤②⑩ |⑤⑥⑦⑧|
⑨③⑧⑪ |⑨⑩--|
口⑪④口 |⑪---|
62
⑦①口⑥ |①②③④|
口⑤②口 |⑤⑥⑦⑧|
口口口⑧
③口口④

口⑪口口
⑨口口⑪
⑪口⑩口 |⑨⑩--|
口口⑪口 |⑪---|
63
口口口④ |①---|
④①口③ |②---|
口口口② |③---|
①④口① |④---|
64
③③口⑤ |①---|
口口口④ |②-③-|
①①口② |④---|
口口口① |⑤---|
65
⑥⑪①口 |①②③④|
⑩②⑤⑪ |⑤⑥⑦⑧|
⑪⑧③⑨ |⑨⑩--|
口④⑪⑦ |⑪---|
66
⑥口①⑦ |①②③④|
口②⑤口 |⑤⑥⑦⑧|
⑧口口口
④口口③

口口⑪口
⑪口口⑨
口⑩口⑪ |⑨⑩--|
口⑪口口 |⑪---|
67
④口口口 |①---|
③口①④ |②---|
②口口口 |③---|
①口④① |④---|
68
口口③③ |①---|
口口口口 |②-③-|
②口①①
①口口口

口口口口
④⑤⑤口
口⑤⑤口 |④---|
口⑤⑤口 |⑤---|

不確定度: 0

最終更新:2016年09月21日 01:03