男と女の言い合いのうた
猫大樹

BASIC

Level: 3
BPM: 160
Notes: 154

1
口口口口 |----|
口口口口 |----|
口口口口 |----|
口口口口 |----|
2
口口口口 |①---|
口口口口 |----|
口①口口 |----|
口口口口 |----|
3
口口口口 |①---|
口口口口 |----|
口口①口 |----|
口口口口 |----|
4
口口口口 |①---|
口②口口 |----|
口①口口 |②---|
口口口口 |----|
5
口口口口 |①---|
口口②口 |----|
口口①口 |②---|
口口口口 |----|
6
口口口口 |①---|
口口口① |----|
口口口口 |----|
口口口口 |----|
7
口口口口 |①---|
口口①口 |----|
口口口口 |----|
口口口口 |----|
8
口口口口 |①---|
口①口口 |----|
口口口口 |----|
口口口口 |----|
9
口口口口 |①---|
①口口口 |----|
口口口口 |----|
口口口口 |----|
10
①口口口 |①---|
口口口口 |----|
口口口口 |----|
口口口口 |----|
11
口①口口 |①---|
口口口口 |----|
口口口口 |----|
口口口口 |----|
12
口口①口 |①---|
口口口口 |----|
口口口口 |----|
口口口口 |----|
13
口口口① |①---|
口口口口 |----|
口口口口 |----|
口口口口 |----|
14
口口口口 |①---|
口口口① |----|
口口口口 |----|
口口口口 |----|
15
口口口口 |①---|
口口①口 |----|
口口口口 |----|
口口口口 |----|
16
口口口口 |①---|
口①口口 |----|
口口口口 |----|
口口口口 |----|
17
口口口口 |①---|
①口口口 |----|
口口口口 |----|
口口口口 |----|
18
口①①口 |①---|
口口口口 |----|
口口口口 |----|
口口口口 |----|
19
口口口口 |①---|
口①①口 |----|
口口口口 |----|
口口口口 |----|
20
口口口口 |①---|
口口口口 |----|
口①①口 |----|
口口口口 |----|
21
口口口口 |①---|
口口口口 |----|
口口口口 |----|
口①①口 |----|
22
口口口口 |①---|
口②口口 |----|
①口口口 |②---|
口口口口 |----|
23
口口口口 |①---|
口口口② |----|
口口①口 |②---|
口口口口 |----|
24
口口口口 |①---|
口口②口 |----|
口口口① |②---|
口口口口 |----|
25
口口口口 |①---|
②口口口 |----|
口①口口 |②---|
口口口口 |----|
26
口口口口 |①---|
口口口口 |----|
①口口口 |②---|
口②口口 |----|
27
口口口口 |①---|
口口口口 |----|
口口口② |②---|
口口①口 |----|
28
口口口口 |①---|
②①①② |----|
口口口口 |②---|
口口口口 |----|
29
①口口① |①---|
口口口口 |----|
口口口口 |----|
口口口口 |----|
30
口口口口 |①---|
口口口① |----|
口口②口 |②---|
口口口口 |----|
31
口口口口 |①---|
口①口口 |----|
②口口口 |②---|
口口口口 |----|
32
口口口口 |①---|
①口口口 |----|
口②口口 |②---|
口口口口 |----|
33
口口口口 |①---|
口口①口 |----|
口口口② |②---|
口口口口 |----|
34
口口口口 |①---|
口①①口 |----|
口②②口 |②---|
口口口口 |----|
35
口口口口 |①---|
①口口① |----|
口②②口 |②---|
口口口口 |----|
36
口口口口 |①---|
②口口② |----|
①口口① |②---|
口口口口 |----|
37
①①①① |①---|
口口口口 |----|
口口口口 |----|
口口口口 |----|
38
口口口口 |----|
口口口口 |----|
口口口口 |----|
口口口口 |----|
39
口口口口 |----|
口口口口 |----|
口口口口 |----|
口口口口 |----|
40
口口口口 |----|
口口口口 |----|
口口口口 |----|
口口口口 |----|
41
口口口口 |----|
口口口口 |----|
口口口口 |----|
口口口口 |----|
42
口口口口 |----|
口口口口 |----|
口口口口 |----|
口口口口 |----|
43
口口口口 |----|
口口口口 |----|
口口口口 |----|
口口口口 |----|
44
口口口口 |----|
口口口口 |----|
口口口口 |----|
口口口口 |----|
45
口口口口 |----|
口口口口 |----|
口口口口 |----|
口口口口 |----|
46
口口口口 |①---|
口口口口 |----|
口口②① |②---|
口口口口 |----|
47
口口口口 |①---|
口口口口 |----|
②①口口 |②---|
口口口口 |----|
48
口口口口 |①---|
①②口口 |----|
口口口口 |②---|
口口口口 |----|
49
口口口口 |①---|
口口①② |----|
口口口口 |②---|
口口口口 |----|
50
口①①口 |①---|
口口口口 |----|
口口口口 |----|
口口口口 |----|
51
口口口口 |①---|
口①①口 |----|
口口口口 |----|
口口口口 |----|
52
口口口口 |①---|
口口口口 |----|
口①①口 |----|
口口口口 |----|
53
口口口口 |①---|
口口口口 |----|
口口口口 |----|
口①①口 |----|
54
口口口口 |①---|
口口②口 |----|
口口口① |②---|
口口口口 |----|
55
口口口口 |①---|
②口口口 |----|
口①口口 |②---|
口口口口 |----|
56
口口口口 |①---|
口②口口 |----|
①口口口 |②---|
口口口口 |----|
57
口口口口 |①---|
口口口② |----|
口口①口 |②---|
口口口口 |----|
58
口口口口 |①---|
口口口口 |----|
口口口① |②---|
口口②口 |----|
59
口口口口 |①---|
口口口口 |----|
②口口口 |②---|
口①口口 |----|
60
口口口口 |①---|
②①①② |----|
口口口口 |②---|
口口口口 |----|
61
①口口① |①---|
口口口口 |----|
口口口口 |----|
口口口口 |----|
62
口口口口 |①---|
①口口口 |----|
口②口口 |②---|
口口口口 |----|
63
口口口口 |①---|
口口①口 |----|
口口口② |②---|
口口口口 |----|
64
口口口口 |①---|
口口口① |----|
口口②口 |②---|
口口口口 |----|
65
口口口口 |①---|
口①口口 |----|
②口口口 |②---|
口口口口 |----|
66
口口口口 |①---|
口①①口 |----|
口②②口 |②---|
口口口口 |----|
67
口口口口 |①---|
①口口① |----|
口②②口 |②---|
口口口口 |----|
68
口口口口 |①---|
②口口② |----|
①口口① |②---|
口口口口 |----|
69
①①①① |①---|
口口口口 |----|
口口口口 |----|
口口口口 |----|
70
口口口口 |①---|
口②口口 |----|
口口①口 |②---|
口口口口 |----|
71
①口口口 |①---|
口②②口 |----|
口口口口 |②---|
口口口口 |----|
72
口口口口 |①---|
口口②口 |----|
口①口口 |②---|
口口口口 |----|
73
口口口① |①---|
口②②口 |----|
口口口口 |②---|
口口口口 |----|
74
口口口口 |①---|
口口口口 |----|
②①①② |②---|
口口口口 |----|
75
口口口口 |①---|
②①①② |----|
口口口口 |②---|
口口口口 |----|
76
口口口口 |①---|
口口口口 |----|
①口口① |②---|
②口口② |----|
77
口口口口 |①---|
口②②口 |----|
①②②① |②---|
口口口口 |----|

不確定度: 0

最終更新:2016年09月21日 01:03