男と女の言い合いのうた
猫大樹

ADVANCED

Level: 6
BPM: 160
Notes: 418

1
口口口口 |----|
口口口口 |----|
口口口口 |----|
口口口口 |----|
2
口口口口 |①---|
口口口口 |----|
②①①② |②---|
口口口口 |----|
3
口口口口 |①---|
口口口口 |----|
②①①② |②---|
口口口口 |----|
4
口口口口 |①---|
口口口口 |----|
②①①② |②---|
口口口口 |----|
5
③口口③ |①---|
①②②① |----|
口口口口 |②---|
口口口口 |③---|
6
口口口口 |①---|
③口口④ |②---|
①口口② |③---|
口口口口 |④---|
7
口③③口 |①---|
口④④口 |②---|
①口口② |③---|
口口口口 |④---|
8
口口口口 |①---|
口口口口 |②---|
①口口② |③---|
③口口④ |④---|
9
口③③口 |①---|
口④④口 |②---|
①口口② |③---|
口口口口 |④---|
10
口口口口 |①---|
口口口口 |②---|
④口口① |③---|
②口口③ |④---|
11
口④④口 |①---|
口③③口 |②---|
口口口① |③---|
②口口口 |④---|
12
口口口口 |①---|
口口口口 |②---|
④口口① |③---|
②口口③ |④---|
13
口④④口 |①---|
口③③口 |②---|
口口口① |③---|
②口口口 |④---|
14
口口口口 |①---|
③口口④ |②---|
①口口② |③---|
口口口口 |④---|
15
口③③口 |①---|
口④④口 |②---|
①口口② |③---|
口口口口 |④---|
16
口口口口 |①---|
③口口④ |②---|
①口口② |③---|
口口口口 |④---|
17
口③③口 |①---|
口④④口 |②---|
①口口② |③---|
口口口口 |④---|
18
口口口口 |①---|
口口口口 |②---|
①口口④ |③---|
口②③口 |④---|
19
③口口③ |①---|
④②①④ |②---|
口口口口 |③---|
口口口口 |④---|
20
口口口口 |----|
口口口口 |----|
口口口口 |----|
口口口口 |----|
21
口口口口 |----|
口口口口 |----|
口口口口 |----|
口口口口 |----|
22
口②②口 |①---|
口①③口 |②---|
①口口③ |③---|
口④④口 |④---|
23
②口口② |①---|
口口口口 |--②-|
③①①③ |----|
口口口口 |③---|
24
口①①口 |①---|
口②②口 |②---|
口③③口 |③---|
口④④口 |④---|
25
口口口口 |①---|
①口②① |----|
口口②口 |----|
口口口口 |②---|
26
口口口口 |①---|
③①口② |--②-|
③①口② |----|
口口口口 |③---|
27
①口口① |①---|
口②②口 |②---|
③口口③ |③---|
口④④口 |④---|
28
口口口口 |①---|
②①①② |②---|
④③③④ |③---|
口口口口 |④---|
29
①①①① |①---|
口口口口 |----|
口口口口 |----|
口口口口 |----|
30
口②②口 |①---|
口③①口 |②---|
③口口① |③---|
口④④口 |④---|
31
②口口② |①---|
口口口口 |--②-|
③①①③ |----|
口口口口 |③---|
32
口①①口 |①---|
口②②口 |②---|
口③③口 |③---|
口④④口 |④---|
33
口口口口 |①---|
①口口① |----|
口②口口 |----|
②口口口 |②---|
34
③口口② |①---|
口③②口 |②---|
口④①口 |③---|
④口口① |④---|
35
③④④② |①---|
口③②口 |②---|
口口①口 |③---|
口口口① |④---|
36
口口口口 |①---|
②④③① |②---|
②③④① |③---|
口口口口 |④---|
37
①①①① |①---|
口口口口 |----|
口口口口 |----|
口口口口 |----|
38
口口口口 |①---|
口①口口 |----|
口口①口 |----|
口口口口 |----|
39
口口口口 |①---|
口口①口 |----|
口①口口 |----|
口口口口 |----|
40
口口口口 |①---|
口①口口 |----|
口口①口 |----|
口口口口 |----|
41
口口口口 |①---|
口口①口 |----|
口①口口 |----|
口口口口 |----|
42
口口口口 |①---|
口①口口 |----|
口口①口 |----|
口口口口 |----|
43
口口口口 |①---|
口口①口 |----|
口①口口 |----|
口口口口 |----|
44
口口口口 |①---|
口①口口 |----|
口口①口 |----|
口口口口 |----|
45
口口口口 |①---|
口口①口 |----|
口①口口 |----|
口口口口 |----|
46
口口口口 |①---|
④口口③ |②---|
②口口① |③---|
口口口口 |④---|
47
口口③③ |①---|
口④④口 |②---|
②口口① |③---|
口口口口 |④---|
48
口口口口 |①---|
③口口④ |②---|
①口口② |③---|
口口口口 |④---|
49
③③口口 |①---|
口④④口 |②---|
①口口② |③---|
口口口口 |④---|
50
口口口口 |①---|
口口口口 |②---|
④口口① |③---|
口③②口 |④---|
51
③口口③ |①---|
④①②④ |②---|
口口口口 |③---|
口口口口 |④---|
52
口口口口 |----|
口口口口 |----|
口口口口 |----|
口口口口 |----|
53
④口口④ |①---|
③口口③ |②---|
②口口② |③---|
①口口① |④---|
54
口②②口 |①---|
口③①口 |②---|
③口口① |③---|
口④④口 |④---|
55
②口口② |①---|
口口口口 |--②-|
③①①③ |----|
口口口口 |③---|
56
口①①口 |①---|
口②②口 |②---|
口③③口 |③---|
口④④口 |④---|
57
口口口口 |①---|
①②口① |----|
口②口口 |----|
口口口口 |②---|
58
口口口口 |①---|
②口①③ |--②-|
②口①③ |----|
口口口口 |③---|
59
①口口① |①---|
口②②口 |②---|
③口口③ |③---|
口④④口 |④---|
60
口口口口 |①---|
②①①② |②---|
④③③④ |③---|
口口口口 |④---|
61
①①①① |①---|
口口口口 |----|
口口口口 |----|
口口口口 |----|
62
口②②口 |①---|
口①③口 |②---|
①口口③ |③---|
口④④口 |④---|
63
②口口② |①---|
口口口口 |--②-|
③①①③ |----|
口口口口 |③---|
64
口①①口 |①---|
口②②口 |②---|
口③③口 |③---|
口④④口 |④---|
65
口口口口 |①---|
①口口① |----|
口口②口 |----|
口口口② |②---|
66
②口口③ |①---|
口②③口 |②---|
口①④口 |③---|
①口口④ |④---|
67
②④④③ |①---|
口②③口 |②---|
口①口口 |③---|
①口口口 |④---|
68
口口口口 |①---|
①③④② |②---|
①④③② |③---|
口口口口 |④---|
69
①①①① |①---|
口口口口 |----|
口口口口 |----|
口口口口 |----|
70
口口口口 |①---|
②②④④ |②---|
口口口口 |③---|
①①③③ |④---|
71
①①③③ |①---|
口口口口 |②---|
②②④④ |③---|
口口口口 |④---|
72
口口口口 |①---|
②②④④ |②---|
口口口口 |③---|
①①③③ |④---|
73
①①③③ |①---|
口口口口 |②---|
②②④④ |③---|
口口口口 |④---|
74
口口③③ |①---|
②②口口 |②---|
口口④④ |③---|
①①口口 |④---|
75
口口③③ |①---|
②②口口 |②---|
口口④④ |③---|
①①口口 |④---|
76
口①③口 |①---|
口③①口 |②---|
②口口④ |③---|
口口口口 |④---|
77
口④④口 |①---|
③④④③ |②---|
口①②口 |③---|
口②①口 |④---|

不確定度: 0

最終更新:2016年09月21日 01:03