男と女の言い合いのうた
猫大樹

EXTREME

Level: 8
BPM: 160
Notes: 693

1
口口口口 |----|
口口口口 |----|
口口口口 |----|
口口口口 |----|
2
④③口口 |①---|
③④口口 |②---|
口口口口 |③---|
①口口② |④---|
3
④③口口 |①---|
③④口口 |②---|
口口口口 |③---|
①口口② |④---|
4
④口②③ |①---|
口④③② |②---|
口口口口 |③---|
①口口口 |④---|
5
④①②④ |①---|
①④④② |②---|
④口口④ |③---|
口③③口 |④---|
6
口①②口 |①-②-|
口⑤⑥口 |③-④-|
口③④口 |⑤-⑥-|
口⑦⑧口 |⑦-⑧-|
7
口①②口 |①-②-|
口⑤⑥口 |③-④-|
口③④口 |⑤-⑥-|
口⑦⑧口 |⑦-⑧-|
8
④口口① |①---|
③口口② |②---|
②口口③ |③---|
①口口④ |④---|
9
口①②③ |①---|
口口口④ |②---|
④口口口 |③---|
③②①口 |④---|
10
口口口口 |①-②-|
口①②口 |③-④-|
口③④口
口口口口

口口口口
口⑦⑧口
口口口口 |⑤-⑥-|
口⑤⑥口 |⑦-⑧-|
11
口⑦⑧口 |①-②-|
口⑤⑥口 |③-④-|
口①②口 |⑤-⑥-|
口③④口 |⑦-⑧-|
12
①口口④ |①---|
②口口③ |②---|
③口口② |③---|
④口口① |④---|
13
③②①口 |①---|
④口口口 |②---|
口口口④ |③---|
口①②③ |④---|
14
口①②口 |①-②-|
口⑤⑥口 |③-④-|
口③④口 |⑤-⑥-|
口⑦⑧口 |⑦-⑧-|
15
口①②口 |①-②-|
口⑤⑥口 |③-④-|
口③④口 |⑤-⑥-|
口⑦⑧口 |⑦-⑧-|
16
④口口① |①---|
③口口② |②---|
②口口③ |③---|
①口口④ |④---|
17
口①②③ |①---|
口口口④ |②---|
④口口口 |③---|
③②①口 |④---|
18
口口②⑤ |①---|
⑤③①口 |②-③-|
口①④口 |④---|
口口口口 |⑤---|
19
①口口口 |①---|
口④③① |②---|
⑥口口⑤ |③-④-|
口②②口 |⑤-⑥-|
20
口①口① |①---|
口口口口 |----|
口口口口 |②---|
口②口② |----|
21
口口口口 |①---|
④③①② |②---|
③④②① |③---|
口口口口 |④---|
22
口③④口 |①-②-|
口③④口 |③-④-|
口口②①
口口②①

口口口口
口口口口
⑤⑥⑧⑦ |⑤-⑥-|
⑤⑥⑧⑦ |⑦-⑧-|
23
②口口② |①---|
①②②① |--②-|
口③③口 |----|
③口口③ |③---|
24
口①②口 |①-②-|
口③④② |③-④-|
口⑤⑥④ |⑤-⑥-|
口⑦⑦⑥ |⑦---|
25
①①①① |①---|
②口口口 |②---|
口口口口
②口口口

④口口口
口⑤③口
口③⑤③ |③---|
口口③④ |④-⑤-|
26
口②口② |①---|
口口口① |--②-|
①口口口 |----|
③口③口 |③---|
27
①口②② |①---|
①③口① |②-③-|
口③口①
口口口口

口口口口
口口⑥口
⑤口④⑥ |④-⑤-|
⑤⑦⑦④ |⑥-⑦-|
28
①口口② |①-②-|
④口口④ |③-④-|
口③③口 |⑤-⑥-|
⑤⑦⑦⑥ |⑦---|
29
①②口① |①---|
②①①② |----|
①口②① |②---|
口口口口 |----|
30
口④③口 |①-②-|
口④③口 |③-④-|
①②口口
①②口口

口口口口
口口口口
⑦⑧⑥⑤ |⑤-⑥-|
⑦⑧⑥⑤ |⑦-⑧-|
31
③②②③ |①---|
①口口① |②-③-|
口④④口 |----|
④口口④ |④---|
32
口②①口 |①-②-|
②④③口 |③-④-|
④⑥⑤口 |⑤-⑥-|
⑥⑦⑦口 |⑦---|
33
口①口口 |①---|
①②①口 |②---|
口口口①
口口口②

④口口口
⑤口口③
口口口口 |③---|
口③口口 |④-⑤-|
34
口口口③ |①-②-|
口①⑤④ |③-④-|
口②⑥口 |⑤-⑥-|
⑦口口⑦ |⑦---|
35
①口⑤① |①---|
③④②⑤ |②-③-|
②④③口 |④---|
口口口口 |⑤---|
36
⑤口口② |①-②③|
口口③口 |④-⑤-|
口④口口
①口口①

口口口口
口口口口
⑥口口⑦ |⑥-⑦-|
口⑧口⑨ |⑧-⑨-|
37
口口①口 |①---|
口①口① |----|
口口①口 |----|
口口口口 |----|
38
口口口② |①---|
口口口口 |--②-|
口口口口 |----|
口口①① |----|
39
口口口② |①---|
口口口口 |--②-|
口口口口 |----|
口口①① |----|
40
口口口② |①---|
口口口口 |--②-|
口口口口 |----|
口口①① |----|
41
口口口② |①---|
口口口口 |--②-|
口口口口 |----|
口口①① |----|
42
口口口③ |①--②|
①③口口 |--③-|
⑤口⑥口 |-④--|
②④①① |⑤-⑥-|
43
口口口③ |①--②|
①③口口 |--③-|
⑤口⑥口 |-④--|
②④①① |⑤-⑥-|
44
口口口③ |①--②|
①③口口 |--③-|
⑤口⑥口 |-④--|
②④①① |⑤-⑥-|
45
⑤口口⑤ |①--②|
①③口口 |--③-|
⑤口口⑤ |-④--|
②④①① |⑤---|
46
口口⑥⑤ |①-②-|
口口②① |③-④-|
口口⑧⑦ |⑤-⑥-|
口口④③ |⑦-⑧-|
47
口口⑥⑤ |①-②-|
口口②① |③-④-|
口口⑧⑦ |⑤-⑥-|
口口④③ |⑦-⑧-|
48
⑤⑥口口 |①-②-|
①②口口 |③-④-|
⑦⑧口口 |⑤-⑥-|
③④口口 |⑦-⑧-|
49
⑤⑥口口 |①-②-|
①②口口 |③-④-|
⑦⑧口口 |⑤-⑥-|
③④口口 |⑦-⑧-|
50
④③②① |①---|
口口口口 |②---|
口口口口 |③---|
①②③④ |④---|
51
口③口④ |①---|
①③④② |②---|
②④③① |③---|
④口③口 |④---|
52
①口①口 |①---|
口口口口 |----|
口口口口 |②---|
②口②口 |----|
53
口口口口 |①---|
②①③④ |②---|
①②④③ |③---|
口口口口 |④---|
54
口口口口 |①-②-|
口④③口 |③-④-|
①①口口
②②口口

口口口口
口口口⑧
⑦口⑤⑤ |⑤-⑥-|
口口⑥⑥ |⑦-⑧-|
55
①口口② |①---|
口②②口 |--②-|
口③③口 |----|
③口口口 |③---|
56
口②①口 |①-②-|
②④③口 |③-④-|
④⑥⑤口 |⑤-⑥-|
⑥⑦⑦口 |⑦---|
57
①②②① |①---|
口口口口 |②---|
口口口口
口口口口

口口口④
口③⑤③
③⑤③口 |③---|
④口口口 |④-⑤-|
58
②口②口 |①---|
①口口口 |--②-|
口口口① |----|
口③口③ |③---|
59
②②口① |①---|
①口③① |②-③-|
①口③口
口口口口

口口口口
口⑥口口
⑥④口⑤ |④-⑤-|
④⑦⑦⑤ |⑥-⑦-|
60
②口口① |①-②-|
④口口④ |③-④-|
口③③口 |⑤-⑥-|
⑥⑦⑦⑤ |⑦---|
61
①口②① |①---|
②①①② |----|
①②口① |②---|
口口口口 |----|
62
口口口口 |①-②-|
口③④口 |③-④-|
口口①①
口口②②

口口口口
⑧口口口
⑤⑤口⑦ |⑤-⑥-|
⑥⑥口口 |⑦-⑧-|
63
②口口① |①---|
口②②口 |--②-|
口③③口 |----|
口口口③ |③---|
64
口①②口 |①-②-|
口③④② |③-④-|
口⑤⑥④ |⑤-⑥-|
口⑦⑦⑥ |⑦---|
65
口②①口 |①---|
②①口① |②---|
①口口口
口口口口

口口口口
口④口口
⑤口口③ |③---|
口口③口 |④-⑤-|
66
口口口口 |①-②-|
口口③口 |③-④-|
口①⑤④ |⑤-⑥-|
②⑦⑦⑥ |⑦---|
67
①口①口 |①---|
①①①③ |②-③-|
⑥①④口 |④-⑤-|
②⑤口口 |⑥---|
68
③口口① |①-②-|
⑤③①⑥ |③-④-|
口②④口 |⑤-⑥-|
②⑦⑦④ |⑦---|
69
口①口① |①---|
口口①口 |----|
口①口① |----|
口口口口 |----|
70
①①口② |①-②-|
③③口④ |③-④-|
⑤⑤口⑥ |⑤-⑥-|
⑦⑦口⑧ |⑦-⑧-|
71
③①口② |①-②-|
①③口④ |③-④-|
⑦⑤口⑥ |⑤-⑥-|
⑤⑦口⑧ |⑦-⑧-|
72
①①口② |①-②-|
③③口④ |③-④-|
⑤⑤口⑥ |⑤-⑥-|
⑦⑦口⑧ |⑦-⑧-|
73
③①口② |①-②-|
①③口④ |③-④-|
⑦⑤口⑥ |⑤-⑥-|
⑤⑦口⑧ |⑦-⑧-|
74
③①口② |①-②-|
③①口④ |③-④-|
⑦⑤口⑥ |⑤-⑥-|
⑦⑤口⑧ |⑦-⑧-|
75
③①口② |①-②-|
③①口④ |③-④-|
⑦⑤口⑥ |⑤-⑥-|
⑦⑤口⑧ |⑦-⑧-|
76
①口口③ |①---|
口①③口 |②---|
口③①口 |③---|
口②④口 |④---|
77
①口口② |①---|
口①②口 |②---|
口②①口
②口口①

口口④口
口④口④
口口④口 |③---|
口③③口 |④---|

不確定度: 0

最終更新:2016年09月21日 01:02