じもとっこスイーツ♪
ホララ・ホリック with 日向美ビタースイーツ♪

EXTREME

Level: 8
BPM: 108
Notes: 522

1
⑦⑥①② |----|
⑧口口③ |----|
⑨口口④ |①②③④⑤⑥|
⑩口口⑤ |⑦⑧⑨⑩--|
2
⑧⑦③④ |①-②-|
口⑤⑤口 |③④-⑤|
⑥①①② |--⑥-|
口口⑨⑨ |⑦⑧-⑨|
3
口口②③ |--①-|
口口口口 |②③-④|
口口口① |----|
④④口口 |----|
4
口口②③ |--①-|
口口口口 |②③-④|
口口口①
④④口口

⑦⑥口口
口口口口
⑤口⑧⑧ |--⑤-|
口口口口 |⑥⑦-⑧|
5
口①①口 |----|
口①口① |①---|
①①口口
①①口口

口口口⑤
②口口口
⑦口③④ |②③④-|
口⑥口口 |⑤⑥⑦-|
6
②口口② |①---|
口①①口 |②---|
③口口③ |③---|
口③③口 |----|
7
④③口口 |①②③-|
⑪⑤②口 |④⑤⑥-|
⑥⑩⑧① |⑦⑧⑨⑩|
⑨口口⑦ |⑪---|
8
②④③① |①②③④|
口⑥⑤口 |⑤⑥-⑦|
口口口口 |----|
口口⑦口 |----|
9
口口③⑤ |①②③-|
口②口口 |④-⑤-|
①口口④
口口口口

⑦口⑨口
口⑧口口
⑥口口口 |⑥-⑦⑧|
口口口口 |⑨---|
10
④⑩⑨③ |①②-③|
⑪⑤口⑧ |④⑤⑥⑦|
⑥口口② |⑧⑨⑩⑪|
口⑦①口 |----|
11
口口口口 |①②③④|
口口②① |----|
口口④③
口口口口

⑤口口⑩
口口⑨口
⑥口口⑧ |⑤-⑥⑦|
口⑦口口 |⑧⑨⑩-|
12
①②口口 |①②③④|
③④口口 |⑤---|
⑤口口口
口口口口

口⑬口⑥
⑫口⑦口
口⑪口⑧ |⑥⑦⑧⑨|
⑩口⑨口 |⑩⑪⑫⑬|
13
口口口口 |①②③④|
口口②① |----|
口口④③
口口口口

⑤口口⑪
口⑥⑩口
⑦口口⑨ |⑤⑥⑦⑧|
口⑧口口 |⑨⑩⑪-|
14
①口口口 |①②-③|
⑦口口② |④⑤⑥⑦|
⑥①③口
⑤④②口

⑧⑩⑧⑩
口⑩⑩⑩
口⑨⑩⑨ |⑧-⑨-|
口口口口 |⑩---|
15
④口口⑧ |①②③-|
口口⑨口 |④-⑤⑥|
③口口⑦ |⑦-⑧⑨|
①②⑥⑤ |----|
16
⑥口⑤口 |-①②③|
口④口⑦ |④⑤⑥⑦|
②口口③
口口口①

口⑧⑪口
口口⑨口
⑩⑧⑪口 |⑧-⑨⑩|
口口口口 |--⑪-|
17
④④口口 |①②--|
口①口口 |--③④|
口口口②
口口③口

⑩⑩口口
⑩⑨⑨⑤
⑧口⑥口 |-⑤⑥⑦|
口⑦口口 |⑧⑨-⑩|
18
⑦⑥②③ |--①-|
口口口口 |②③-④|
⑤口④① |--⑤-|
口口口口 |⑥⑦--|
19
口口②③ |--①-|
口口口⑤ |②③-④|
⑥④④① |--⑤-|
口口口⑦ |⑥-⑦-|
20
口⑤④口 |①-②-|
口③⑥口 |③-④-|
口⑦②口 |⑤-⑥-|
口①⑧口 |⑦-⑧-|
21
①①口④ |①-②-|
①口④④ |③-④-|
③口②②
③③口②

⑥⑤口口
⑤⑥口口
口口⑦⑧ |⑤-⑥-|
口口⑧⑦ |⑦-⑧-|
22
口④⑤口 |--①-|
口⑥③口 |②-③-|
口②⑦口 |④-⑤-|
①口口口 |⑥-⑦-|
23
口③③② |①---|
口口②② |②-③-|
①口④④ |--④-|
①①④口 |----|
24
口③口② |--①-|
①口口口 |②-③-|
③口口②
口①口口

⑦口⑥口
口⑤口④
⑦口口⑥ |④-⑤-|
口⑤④口 |⑥-⑦-|
25
③口口③ |①---|
①③③口 |②--③|
口口②② |----|
口②①① |----|
26
①⑥⑥② |--①②|
口口口口 |③④--|
③口口④ |⑤--⑥|
⑦⑤⑤口 |---⑦|
27
④口口② |①-②③|
口④③⑤ |-④-⑤|
④①⑤口 |----|
口口口⑤ |----|
28
口①①口 |①---|
口①口① |----|
①①口口
①①口口

③②口口
④口口口
⑤口口口 |----|
⑥口口口 |②③④⑤⑥-|
29
⑤⑤口口 |①--②|
⑤①①③ |③④-⑤|
口②口口
口口④口

口口口口
口口⑥口
⑦口⑧⑧ |--⑥-|
⑦⑦口⑧ |⑦-⑧-|
30
③②②③ |①-②③|
①①口口 |----|
口口口口
口口口口

口口口口
④⑤⑥口
⑩⑨⑧⑦ |-④⑤⑥|
口口口口 |⑦⑧⑨⑩|
31
①口④② |①--②|
⑤⑤口③ |③④-⑤|
口口口口
口口口口

口口口口
口口⑧⑧
口⑥⑥口 |-⑥-⑦|
口口⑦⑦ |--⑧-|
32
口口口口 |①---|
口口口口 |②---|
①②②口
①①②口

④口口④
③④④③
口⑦⑥⑤ |③--④|
口口口口 |-⑤⑥⑦|
33
⑤①①口 |①--②|
⑤②口口 |③④-⑤|
口口口④
口③口口

口口口口
口口⑥口
口口⑧⑧ |--⑥-|
⑦⑦口口 |⑦-⑧-|
34
③口③口 |①②③④|
①④口④ |----|
口②口口
口口口口

口口口口
口口口口
⑤⑥⑦口 |-⑤⑥⑦|
⑪⑩⑨⑧ |⑧⑨⑩⑪|
35
①①①口 |①--②|
①④①② |③④-⑤|
口口③口
口口⑤⑤

⑦口⑥⑥
口口⑧口
口⑨口口 |--⑥-|
口口口口 |-⑦⑧⑨|
36
⑦④③⑦ |①②③④|
②口口口 |⑤⑥-⑦|
口口口⑤
口⑥①口

口口口口
⑧⑨⑩口
口⑬口⑪ |-⑧⑨⑩|
⑭口⑫口 |⑪⑫⑬⑭|
37
口口②口 |①②③-|
③⑦口① |④⑤⑥⑦|
⑥口④口
口口⑤口

口⑫口⑪
⑩口⑬⑨
⑭口口⑧ |⑧⑨-⑩|
口口口口 |⑪⑫⑬⑭|
38
⑦口④⑦ |①②③④|
⑤③口口 |⑤⑥-⑦|
口口②⑥ |----|
口①口口 |----|
39
口⑩⑤口 |①②③④|
②①④③ |⑤-⑥⑦|
⑥⑧⑦⑨ |⑧⑨⑩-|
口⑤⑩口 |----|
40
口口口③ |①②③-|
①④②⑦ |④⑤⑥⑦|
⑥⑤口口
口口口口

口⑪⑩口
口口⑨口
口⑬⑧⑫ |-⑧⑨⑩|
口口⑭口 |⑪⑫⑬⑭|
41
口口口① |①---|
①口口口 |--②③|
②口口②
口③③口

④④口口
④口口口
口口口口 |--④-|
口口口口 |----|
42
口①①口 |----|
口①口① |①---|
①①口口
①①口口

口口口⑤
②口口口
⑥口③④ |②③④-|
口⑦口口 |⑤⑥⑦-|
43
口口口口 |①---|
口①①口 |----|
口口口口
口口口口

口口②③
口口④⑤
口口⑥⑦ |-②③④|
口口⑧口 |⑤⑥⑦⑧|
44
口①①口 |----|
口①口① |①---|
①①口口
①①口口

口口口⑤
②口口口
⑥口口④ |②③④-|
口⑦③口 |⑤⑥⑦-|
45
③②②③ |①---|
④①①④ |②③④⑤⑥-|
⑤①①⑤
⑥口口⑥

口口口口
口口口口
口⑦⑦口 |⑦---|
口口口口 |----|

不確定度: 0

最終更新:2017年03月29日 17:16