STREET DANCER
SILKY F

EXTREME

Level: 8
BPM: 138
Notes: 642

1
口口口口 |----|
口口口口 |----|
口口口口 |----|
口口口口 |----|
2
③口口③ |①-②-|
口①①口 |③---|
口①①口
②口口②

口⑤⑤口
⑦口⑦口
口口口口 |④-⑤-|
⑥④④⑥ |⑥-⑦-|
3
②口②口 |①---|
口①口① |②---|
②口②口
口口口口

口口口口
口④口④
口口口口 |③---|
③④③④ |④---|
4
①口②口 |①---|
②口①口 |②-③-|
口③④口 |--④-|
④⑤⑤③ |⑤---|
5
④③①② |--①-|
②④②④ |②-③-|
⑦口⑤⑥ |④-⑤-|
⑥⑦⑥⑦ |⑥-⑦-|
6
口①①口 |----|
③口③口 |----|
口口口口 |--①-|
②口口② |②-③-|
7
②口②口 |①---|
口①口① |②---|
②口②口
口口口口

口口口口
口④口④
口口口口 |③---|
③④③④ |④---|
8
①口②口 |①---|
②口①口 |②-③-|
口③④口 |--④-|
④⑤⑤③ |⑤---|
9
④③①② |--①-|
②④②④ |②-③-|
口⑦⑤⑥ |④-⑤-|
⑥口⑥口 |⑥-⑦-|
10
口口口口 |①---|
口口口口 |----|
①口口口 |----|
口①口① |----|
11
口②口口 |--①-|
口口②口 |②-③-|
口口口口
③①③①

口⑦④口
口④口口
⑤⑥⑥⑤ |④-⑤-|
口口口⑦ |⑥-⑦-|
12
①③③口 |①---|
②②②② |②---|
口③③口 |③---|
口口①口 |----|
13
口④②口 |--①-|
口②④口 |②-③-|
⑤⑥⑥⑤ |④---|
①③①③ |⑤-⑥-|
14
口口①② |①---|
口口口口 |②---|
口口口口
①②口口

口口口口
③③③③
口口口口 |③---|
④口口④ |④---|
15
①①①① |①---|
口口口口 |----|
口口口口 |----|
口口口口 |----|
16
①口口③ |--①-|
②②④④ |②-③-|
④④②② |④---|
③⑤⑤① |⑤---|
17
口①①口 |①-②-|
口口口口 |----|
②③③② |---③|
④口口④ |④---|
18
④②②④ |①---|
①口口① |②---|
口口口口 |③-④-|
③①①③ |----|
19
口②口口 |--①-|
口口②口 |②-③-|
口口口口
③①③①

口⑦④口
口④口口
⑤⑥⑥⑤ |④-⑤-|
口口口⑦ |⑥-⑦-|
20
①口口② |①-②-|
③③③③ |--③-|
口口口口 |----|
②口①口 |----|
21
口④②口 |--①-|
口②④口 |②-③-|
⑤⑥⑥⑤ |④---|
①③①③ |⑤-⑥-|
22
口口①② |①---|
口口口口 |②---|
口口口口
①②口口

⑤⑤⑤⑤
③③③③
口口口口 |③-④-|
④口口④ |--⑤-|
23
口口口口 |----|
口口口口 |----|
口口口口 |----|
口口口口 |----|
24
①口口口 |--①-|
②②③③ |②---|
③③②② |③---|
口④④① |④---|
25
①①①① |①---|
口④④口 |----|
口②②口 |--②-|
③口口③ |③-④-|
26
口②②口 |①---|
①口口① |②---|
口口口口 |③---|
③①①③ |----|
27
⑤①⑥② |--①-|
③口④口 |②-③-|
⑥②⑤① |④-⑤-|
④口③口 |--⑥-|
28
⑤④口口 |①---|
④⑤③口 |②-③-|
口③②① |④-⑤-|
口口①② |----|
29
口口④① |----|
②口③口 |①-②-|
④①口口 |③---|
③口②口 |--④-|
30
⑤④口口 |①-②-|
④⑤③口 |--③-|
口③②① |④-⑤-|
口口①② |----|
31
⑤①⑥② |--①-|
③口④口 |②-③-|
⑥②⑤① |④---|
④口③口 |⑤-⑥-|
32
⑤④口口 |①---|
④⑤③② |②-③-|
口③口① |④-⑤-|
口②①口 |----|
33
⑤⑦⑥② |①---|
③口④口 |②-③-|
⑥②⑤⑦ |④-⑤-|
④①③① |⑥-⑦-|
34
口口口① |①---|
②②②② |②---|
口①口口
口口口口

④④④④
口口口口
口口口口 |③-④-|
③③③③ |----|
35
口②②口 |--①-|
口口口口 |②---|
口口口口
①口口①

口口口口
⑤口⑤口
口口口口 |③---|
④③③④ |④-⑤-|
36
②口②口 |①---|
口①口① |②---|
②口②口
口口口口

口口口口
口④口④
口口口口 |③---|
③④③④ |④---|
37
①口②口 |①---|
②口①口 |②-③-|
口③④口 |--④-|
④⑤⑤③ |⑤---|
38
④③①② |--①-|
②④②④ |②-③-|
⑦口⑤⑥ |④-⑤-|
⑥⑦⑥⑦ |⑥-⑦-|
39
口①①口 |----|
③口③口 |----|
口口口口 |--①-|
②口口② |②-③-|
40
②口②口 |①---|
口①口① |②---|
②口②口
口口口口

口口口口
口④口④
口口口口 |③---|
③④③④ |④---|
41
①口②口 |①---|
②口①口 |②-③-|
口③④口 |--④-|
④⑤⑤③ |⑤---|
42
④③①② |--①-|
②④②④ |②-③-|
口⑦⑤⑥ |④-⑤-|
⑥口⑥口 |⑥-⑦-|
43
口口口口 |①---|
口口口口 |----|
①口口口 |----|
口①口① |----|
44
⑤①⑥② |--①-|
③口④口 |②-③-|
⑥②⑤① |④-⑤-|
④口③口 |--⑥-|
45
⑤④口口 |①---|
④⑤③口 |②-③-|
口③②① |④-⑤-|
口口①② |----|
46
口口④① |----|
②口③口 |①-②-|
④①口口 |③---|
③口②口 |--④-|
47
⑤④口口 |①-②-|
④⑤③口 |--③-|
口③②① |④-⑤-|
口口①② |----|
48
⑤①⑥② |--①-|
③口④口 |②-③-|
⑥②⑤① |④---|
④口③口 |⑤-⑥-|
49
⑤④口口 |①---|
④⑤③② |②-③-|
口③口① |④-⑤-|
口②①口 |----|
50
⑤⑦⑥② |①---|
③口④口 |②-③-|
⑥②⑤⑦ |④-⑤-|
④①③① |⑥-⑦-|
51
口口口① |①---|
②②②② |②---|
口①口口
口口口口

④口口④
口口口口
口口口口 |③-④-|
③③③③ |----|
52
⑤①⑥② |--①-|
③口④口 |②-③-|
⑥②⑤① |④-⑤-|
④口③口 |--⑥-|
53
⑤④口口 |①---|
④⑤③口 |②-③-|
口③②① |④-⑤-|
口口①② |----|
54
口口①② |--①-|
③口口① |②-③-|
口②口口
口口③口

口口⑥口
口⑤④口
⑥口口口 |④---|
④口口口 |⑤-⑥-|
55
⑤④口口 |①---|
④⑤③口 |②-③-|
口③②① |④-⑤-|
口口①② |----|
56
⑥①⑦② |--①-|
③⑤④口 |②-③-|
⑦②⑥① |④-⑤-|
④口③口 |⑥-⑦-|
57
⑤④口口 |①-②-|
④⑤③② |--③-|
口③口① |④-⑤-|
口②①口 |----|
58
⑤⑦⑥② |①---|
③口④口 |②-③-|
⑥②⑤⑦ |④-⑤-|
④①③① |⑥-⑦-|
59
口口口① |①---|
②②②② |②---|
口①口口
口口口口

④④④④
口口口口
口口口口 |③-④-|
③③③③ |----|
60
②④④② |--①-|
口口口口 |②---|
口口口口 |③-④-|
③①①③ |----|
61
口⑥③口 |①-②-|
⑤⑤②② |③-④-|
①⑦⑦④ |⑤-⑥-|
⑧口口⑧ |⑦-⑧-|
62
①口口① |①---|
口口口口 |----|
口口口口 |----|
口口口口 |----|


不确定度: 0

タグ:

+ タグ編集
  • タグ:

このサイトはreCAPTCHAによって保護されており、Googleの プライバシーポリシー利用規約 が適用されます。

最終更新:2012年11月10日 14:32