厳冬記
猫大樹

ADVANCED

Level: 9
BPM: 150
Notes: 653

1
口口口口 |----|
口口口口 |----|
口口口口 |----|
口口口口 |----|
2
口口口口 |①---|
口口口口 |----|
口口口口 |----|
①口口① |----|
3
③①①② |①---|
③④口② |--②-|
口口④口 |----|
口口口口 |③-④-|
4
口口口口 |①---|
口口口口 |----|
口口口口 |----|
口①①口 |----|
5
口口①口 |①---|
口口口① |----|
口口口口 |----|
口口口口 |----|
6
口口口口 |①---|
口口口口 |----|
口口口口 |----|
①口口① |----|
7
②①①③ |①---|
②口④③ |--②-|
口④口口 |----|
口口口口 |③-④-|
8
口口口口 |①---|
口口口口 |----|
口口口口 |----|
口①①口 |----|
9
口①口口 |①---|
①口口口 |----|
口口口口 |----|
口口口口 |----|
10
口口口口 |①---|
④③②① |②---|
口口口口 |③---|
口口口① |④---|
11
①②口② |①---|
口口口口 |②---|
①口口口
口口口口

口口口口
口③口③
⑤④⑤④ |③---|
口口口口 |④-⑤-|
12
口口口口 |①---|
口口口口 |②---|
口口口口 |③---|
④③②① |④---|
13
③口③② |①---|
⑤④⑤④ |②---|
①口①② |③---|
口口口口 |④-⑤-|
14
口口口口 |①---|
口口口口 |②---|
④③②① |③---|
口口口口 |④---|
15
口口口口 |①---|
①③①③ |②---|
④⑤④⑤ |③---|
口②口② |④-⑤-|
16
口口口口 |①---|
口口口口 |②---|
口口口口 |③---|
①②③④ |④---|
17
口口口口 |①---|
口①①口 |----|
口①①口 |----|
口口口口 |----|
18
口口口① |①---|
①②口⑤ |②③④⑤|
口口口①
①④口③

⑥⑫⑨⑪
口口口口
⑧⑩⑦⑬ |⑥⑦⑧⑨|
口口口口 |⑩⑪⑫⑬|
19
③口⑤④ |①---|
①口口② |②---|
⑤④③口 |③---|
口②①口 |④-⑤-|
20
⑨⑮⑫⑭ |①②③④|
③⑤②⑧ |⑤⑥⑦⑧|
⑪⑬⑩⑯ |⑨⑩⑪⑫|
①⑦④⑥ |⑬⑭⑮⑯|
21
口④③⑤ |①---|
①口口② |②---|
③⑤口④ |③---|
口②①口 |④-⑤-|
22
⑨⑮⑫⑭ |①②③④|
③⑤②⑧ |⑤⑥⑦⑧|
⑪⑬⑩⑯ |⑨⑩⑪⑫|
①⑦④⑥ |⑬⑭⑮⑯|
23
③口⑤④ |①---|
口②①口 |②---|
⑤④③口 |③---|
①口口② |④-⑤-|
24
⑨⑮⑫⑭ |①②③④|
③⑤②⑧ |⑤⑥⑦⑧|
⑪⑬⑩⑯ |⑨⑩⑪⑫|
①⑦④⑥ |⑬⑭⑮⑯|
25
口口口口 |①②③④|
③⑤②⑧ |⑤⑥⑦⑧|
口口口口
①⑦④⑥

⑨口⑫⑭
口口⑭口
⑪⑬⑩口 |⑨⑩⑪⑫|
⑬口口口 |⑬-⑭-|
26
⑤①口口 |①---|
①⑤口口 |②---|
口口④口 |③---|
口③②④ |④-⑤-|
27
口口①⑥ |①---|
口口⑥① |②---|
口④⑤口 |③-④-|
④②③⑤ |⑤-⑥-|
28
①口口口 |①---|
口①口口 |②---|
口口口口
口口②口

⑥口口口
口⑥口口
口⑤④口 |③-④-|
⑤③口④ |⑤-⑥-|
29
⑤口口① |①---|
口⑤①口 |②---|
口口④口 |③---|
口②③④ |④-⑤-|
30
口口①⑤ |①---|
口口⑤① |②---|
口④口口 |③---|
④②③口 |④-⑤-|
31
⑥①口口 |①---|
①⑥口口 |②---|
口⑤④口 |③-④-|
⑤③②④ |⑤-⑥-|
32
口口口① |①---|
口口①口 |②---|
口口口口
口②口口

口口口⑥
口口⑥口
口④⑤口 |③-④-|
④口③⑤ |⑤-⑥-|
33
①口口口 |①---|
口①口口 |②---|
口口④口 |③---|
口③②口 |④---|
34
①①口② |①---|
口口口口 |②---|
口口口②
口口口口

④口口口
口口口口
④口口口 |③---|
③③口口 |④---|
35
口口口④ |①-②-|
口口口③ |③-④-|
口口口②
口口口①

口⑤⑤口
口⑤⑤口
口口口口 |⑤---|
口口口⑥ |⑥---|
36
②②④④ |①---|
③③口口 |--②-|
口口口口 |③---|
①①口口 |--④-|
37
口口口口 |①---|
口口①① |--②-|
口③③口 |③---|
②④④② |④---|
38
②口①① |①---|
口口口口 |②---|
②口口口
口口口口

口口口④
口口口口
口口口④ |③---|
口口③③ |④---|
39
④口口口 |①-②-|
③口口口 |③-④-|
②口口口
①口口口

口⑤⑤口
口⑤⑤口
口口口口 |⑤---|
⑥口口口 |⑥---|
40
口口②② |①---|
口口③③ |--②-|
口④口口 |③---|
④口①① |--④-|
41
口③口口 |①---|
③①口口 |②---|
①口口④ |③---|
口口④② |④---|
42
口③①口 |①---|
③口⑤① |②-③-|
①⑤口④ |--④-|
②①④② |⑤---|
43
③口①④ |①---|
口口⑤① |②-③-|
①⑥口④ |--④-|
②①③② |⑤-⑥-|
44
⑧口①口 |①-②-|
⑥②⑦⑦ |③-④-|
③口⑤⑤ |⑤-⑥-|
口④口① |⑦-⑧-|
45
口①①① |①---|
口③口④ |②-③-|
②口口② |----|
口④口③ |④---|
46
口①口③ |①---|
①⑤口口 |②-③-|
④③⑤① |--④-|
②④①② |⑤---|
47
④①口③ |①---|
①⑤口口 |②-③-|
④口⑥① |--④-|
②③①② |⑤-⑥-|
48
口①口⑧ |①-②-|
⑦⑦②⑥ |③-④-|
⑤⑤口③ |⑤-⑥-|
①口④口 |⑦-⑧-|
49
①①①口 |①---|
口③②口 |--②-|
口③②口 |----|
③口口② |③---|
50
②①③② |①---|
①⑤口③ |②-③-|
④口⑤① |--④-|
口④①口 |⑤---|
51
④①口③ |①---|
①⑤口口 |②-③-|
④口⑥① |--④-|
②③①② |⑤-⑥-|
52
口①口⑧ |①-②-|
⑦⑦②⑥ |③-④-|
⑤⑤口③ |⑤-⑥-|
①口④口 |⑦-⑧-|
53
①①①⑥ |①---|
⑤口③口 |②-③-|
②④④② |--④-|
③口⑤口 |⑤-⑥-|
54
③③①口 |①---|
口⑦⑧① |②-③-|
①⑤⑥④ |--④-|
②①④② |⑤⑥⑦⑧|
55
③口①④ |①---|
口口⑤① |②-③-|
①⑥口④ |--④-|
②①③② |⑤-⑥-|
56
⑧口①口 |①-②-|
⑥②⑦⑦ |③-④-|
③口⑤⑤ |⑤-⑥-|
口④口① |⑦-⑧-|
57
口①①① |①---|
②②③③ |----|
③③②② |②---|
口口口口 |③---|
58
①①⑤③ |①---|
口③④⑤ |②-③-|
④⑤③口 |--④-|
②④①① |--⑤-|
59
③③③口 |----|
②②②口 |①-②-|
④④④口 |--③-|
口口口① |--④-|
60
口口口口 |①②-③|
③口口口 |-④⑤-|
口口口②
口⑤④①

口口口口
口⑦⑥口
口口口⑨ |⑥⑦-⑧|
⑩口口⑧ |⑨-⑩-|
61
④⑤③② |①②③④|
①口口口 |⑤-⑥-|
口口口口
口口⑥口

口口口口
⑧⑧⑦⑦
⑦⑦⑧⑧ |⑦---|
口口口口 |⑧---|
62
③⑤①① |①---|
⑤④③口 |②-③-|
口③⑤④ |--④-|
①①④② |--⑤-|
63
④④④④ |----|
③②②② |①-②-|
②③③③ |--③-|
①口口口 |--④-|
64
口口口口 |①②-③|
口口口③ |-④⑤-|
②口口口
①④⑤口

口口口口
口⑥⑦口
⑨口口口 |⑥⑦-⑧|
⑧口口⑩ |⑨-⑩-|
65
口①①口 |①---|
口②②口 |②---|
口①①口
口口口口

口口口口
⑩口口⑨
口⑧⑦口 |③④⑤⑥|
⑥④③⑤ |⑦⑧⑨⑩|
66
①①①① |①--②|
口③④口 |-③④-|
口口口②
口口口口

口口口⑨
口口口口
⑧口口口 |⑤⑥-⑦|
⑦⑧⑥⑤ |⑧-⑨-|
67
口口口口 |①②-③|
口④⑤⑩ |-④⑤-|
⑨②①③ |⑥⑦-⑧|
⑧⑨⑦⑥ |⑨-⑩-|
68
①①①① |①--②|
口③④⑨ |-③④-|
⑧口口② |⑤⑥-⑦|
⑦⑧⑥⑤ |⑧-⑨-|
69
①②③⑥ |①②③④|
口⑤④口 |⑤-⑥-|
口口口口
口口口口

口⑩口口
⑦口口⑨
⑧⑩口口 |⑦⑧-⑨|
口口口口 |--⑩-|

不確定度: 0

最終更新:2016年10月16日 02:13