厳冬記
猫大樹

EXTREME

Level: 10
BPM: 150
Notes: 745

1
口口口口 |----|
口口口口 |----|
口口口口 |----|
口口口口 |----|
2
口口口口 |①---|
口口口口 |----|
①口①口 |----|
口①口口 |----|
3
口①口口 |①---|
①②①口 |--②-|
②口②口
口口口口

口③口口
④口③口
口④口口 |----|
口口口口 |③-④-|
4
口口口口 |①---|
口口口口 |----|
口口口① |----|
口口①口 |----|
5
口口①口 |①---|
口①口① |----|
口口口口 |----|
口口口口 |----|
6
口口口口 |①---|
口口口口 |----|
口①口① |----|
口口①口 |----|
7
口口①口 |①---|
口①②① |--②-|
口②口②
口口口口

口口③口
口③口④
口口④口 |----|
口口口口 |③-④-|
8
口口口口 |①---|
口口口口 |----|
①口口口 |----|
口①口口 |----|
9
口①口口 |①---|
①口①口 |----|
口口口口 |----|
口口口口 |----|
10
①口①口 |①---|
口①口口 |②---|
口④③② |③---|
口口口口 |④---|
11
口口口② |①---|
③①口④ |②---|
口⑤②④ |③---|
①③⑤口 |④-⑤-|
12
口①②③ |----|
口口口口 |①---|
口口口口 |②---|
口口口口 |③---|
13
②口②口 |①---|
口口①口 |②---|
口②口口
口①口①

口口口口
⑤③口③
⑤口④口 |③---|
口④③口 |④-⑤-|
14
③②①口 |----|
口口口口 |①---|
口口口口 |②---|
口口口口 |③---|
15
口②口② |①---|
口①口口 |②---|
口口②口
①口①口

口口口口
③口③④
口⑤口④ |③---|
口③⑤口 |④-⑤-|
16
口口口口 |----|
①②③口 |①---|
口口口口 |②---|
口口口口 |③---|
17
①③⑤⑦ |①②-③|
②④⑥⑧ |④-⑤⑥|
⑨⑪口口 |-⑦⑧-|
⑩口口口 |⑨⑩-⑪|
18
①⑤口⑥ |①-②③|
③①口口 |④⑤⑥⑦|
⑦口①②
口口④①

口口口口
⑮口⑧⑩
口⑪口⑭ |⑧⑨⑩⑪|
⑨⑬口⑫ |⑫⑬⑭⑮|
19
②②①② |①---|
口①③口 |②---|
⑤④①口 |③---|
④⑤③③ |④-⑤-|
20
④口口③ |①②③④|
⑥②口口 |⑤⑥⑦⑧|
口口⑤①
⑧口口⑦

⑯⑩口口
口口⑬⑨
⑫口口⑮ |⑨⑩⑪⑫|
口⑭⑪口 |⑬⑭⑮⑯|
21
口②口① |①---|
①①口口 |②---|
口②②口
口口口口

口口④⑤
口口⑤④
口口口口 |③---|
③口③③ |④-⑤-|
22
③口口口 |①②③④|
口⑦口口 |⑤⑥⑦⑧|
①口②⑥
口⑤⑧④

口口⑩⑭
⑨口口⑫
⑮⑬口口 |⑨⑩⑪⑫|
⑪口口⑯ |⑬⑭⑮⑯|
23
①②②口 |①---|
②③①③ |②---|
⑤④①③ |③---|
④⑤口口 |④-⑤-|
24
口④口⑤ |①②③④|
②⑥口口 |⑤⑥⑦⑧|
口口③口
⑧口⑦①

⑩口口口
口口⑨⑬
⑭⑯口⑪ |⑨⑩⑪⑫|
口⑫口⑮ |⑬⑭⑮⑯|
25
口口①⑤ |①②③④|
②⑥口口 |⑤⑥⑦⑧|
口口③⑦
④⑧口口

口⑩口口
⑬口口⑨
口⑫口口 |⑨⑩⑪⑫|
⑭口口⑪ |⑬-⑭-|
26
①口①口 |①---|
口①口② |----|
口口口口 |----|
口口口③ |②-③-|
27
④①口① |①---|
③②①② |----|
④口口口 |--②-|
③口口口 |③-④-|
28
④①口① |①---|
②口①③ |----|
口口口④ |--②-|
③口口② |③-④-|
29
口口①① |①---|
口口口② |----|
①①口口 |----|
口口口③ |②-③-|
30
口①口① |①---|
②口口口 |----|
口口口口 |----|
③口口口 |②-③-|
31
①口①④ |①---|
②口②③ |----|
口口口④ |--②-|
口口口③ |③-④-|
32
①口①④ |①---|
③口口② |----|
④口口口 |--②-|
②口口③ |③-④-|
33
①①口口 |①---|
口口口口 |----|
口口①① |----|
口口口口 |----|
34
口口口口 |①---|
②口口① |----|
②口口① |②---|
口②①口 |----|
35
口④口⑤ |①-②-|
口③②① |③-④-|
口①②③ |⑤---|
口⑤口④ |----|
36
口②③② |①---|
口口③口 |--②-|
口①口① |③---|
口④口④ |--④-|
37
④③②③ |①---|
口③②③ |--②-|
口口①口 |③---|
口口①④ |④---|
38
口口口口 |①---|
①口口② |----|
①口口② |②---|
口①②口 |----|
39
⑤口④口 |①-②-|
①②③口 |③-④-|
③②①口 |⑤---|
④口⑤口 |----|
40
②③②口 |①---|
口③口口 |--②-|
①口①口 |③---|
④口④口 |--④-|
41
②口口口 |①---|
口口口口 |②---|
①①①口
口①口②

口口③口
口④口③
④口口③ |③---|
④口口口 |④---|
42
③口口① |①②-③|
口口①口 |-④⑤-|
口②①⑤
口⑤⑤④

⑩⑧⑧口
⑥⑦口⑧
口⑨⑨口 |⑥⑦⑧-|
⑨口口口 |⑨-⑩-|
43
口口⑤① |①②-③|
④⑤①口 |-④⑤-|
①口口③
口②口口

口⑨口口
口口⑩⑧
⑨⑥⑦口 |⑥⑦⑧-|
口⑩⑧口 |⑨-⑩-|
44
③⑤⑦① |①-②-|
口②口④ |③-④-|
口④口② |⑤-⑥-|
①⑥⑧③ |⑦-⑧-|
45
⑥⑤口① |①②③④|
④①②⑥ |⑤-⑥-|
口③①⑥
①口口口

口口口口
⑪⑩⑩口
⑨口口口 |⑦⑧-⑨|
⑩⑦⑧口 |⑩-⑪-|
46
③口口① |①②-③|
口口口口 |-④⑤-|
⑤①①④
口⑤⑤②

口⑧⑧⑩
⑧口⑦⑥
口⑨⑨口 |⑥⑦⑧-|
口口口⑨ |⑨-⑩-|
47
①⑤口口 |①②-③|
口①⑤④ |-④⑤-|
③口口①
口口②口

口口⑨口
⑧⑩口口
口⑦⑥⑨ |⑥⑦⑧-|
口⑧⑩口 |⑨-⑩-|
48
①⑦⑤③ |①-②-|
④口②口 |③-④-|
②口④口 |⑤-⑥-|
③⑧⑥① |⑦-⑧-|
49
①口⑥口 |①②③④|
口②⑤口 |⑤-⑥-|
①④③口
口口口⑥

口⑩口口
口⑪口⑦
⑨口口⑧ |⑦⑧-⑨|
⑩口口口 |⑩-⑪-|
50
③口口① |①②-③|
口口①口 |-④⑤-|
口②①⑤
口⑤⑤④

⑩⑧⑧口
⑥⑦口⑧
口⑨⑨口 |⑥⑦⑧-|
⑨口口口 |⑨-⑩-|
51
口口⑤① |①②-③|
④⑤①口 |-④⑤-|
①口口③
口②口口

口⑨口口
口口⑩⑧
⑨⑥⑦口 |⑥⑦⑧-|
口⑩⑧口 |⑨-⑩-|
52
③⑤⑦① |①-②-|
口②口④ |③-④-|
口④口② |⑤-⑥-|
①⑥⑧③ |⑦-⑧-|
53
⑥⑤口① |①②③④|
④①②⑥ |⑤-⑥-|
口③①⑥
①口口口

口口⑩口
⑩⑨⑨口
⑦口口口 |⑦-⑧-|
口⑧⑧口 |⑨-⑩-|
54
③口口① |①②-③|
口口口口 |-④⑤-|
⑤①①④
口⑤⑤②

⑩口口⑨
⑦口口⑥
口口口口 |⑥-⑦-|
⑪口口⑧ |⑧⑨⑩⑪|
55
口⑤①口 |①②-③|
口①⑤④ |-④⑤-|
③口口①
口口②口

口口⑨口
⑧⑩口口
口⑦⑥⑨ |⑥⑦⑧-|
口⑧⑩口 |⑨-⑩-|
56
①⑦⑤③ |①-②-|
④口②口 |③-④-|
②口④口 |⑤-⑥-|
③⑧⑥① |⑦-⑧-|
57
①口口① |①---|
口①①口 |----|
①口口①
口口口口

口口③口
②③口③
口口③口 |②---|
②口②口 |③---|
58
口①口① |①---|
口口口口 |--②-|
口①口①
②②②②

④④④④
③③口③
口口③口 |--③-|
口口口口 |--④-|
59
②②②② |----|
③③③口 |--①-|
③③③口 |--②-|
①①①① |--③-|
60
口口口口 |①②-③|
口口口② |-④⑤-|
口口口①
③口⑤④

⑥⑦口口
口口口口
⑩口⑨⑧ |⑥⑦-⑧|
口口口口 |⑨-⑩-|
61
口口口口 |①②③④|
口③②① |⑤-⑥-|
口④口口
口⑤口⑥

口口口口
口口口⑧
⑧口⑧⑦ |⑦---|
⑦口⑦口 |⑧---|
62
①①口① |①---|
口口①口 |--②-|
口口口口
②②②②

④④④④
③③口③
口口③口 |--③-|
口口口口 |--④-|
63
③③③③ |----|
③③③③ |--①-|
②②②② |--②-|
①①①① |--③-|
64
④口口口 |----|
③口口⑤ |----|
⑤口口① |①②-③|
口口口② |④-⑤-|
65
②口口③ |①---|
④①①⑤ |----|
⑥①①⑦ |②③④⑤|
⑧①①⑨ |⑥⑦⑧⑨|
66
⑩③①口 |①②-③|
⑦①⑤⑧ |-④⑤-|
⑥④①⑨ |⑥⑦-⑧|
⑩①②口 |⑨-⑩-|
67
口口③口 |①②-③|
口⑤口口 |-④⑤-|
口口④口
口②①①

口口口⑩
⑧口口⑦
⑨口口⑥ |⑥⑦-⑧|
口口口⑩ |⑨-⑩-|
68
口①③⑩ |①②-③|
⑧⑤①⑦ |-④⑤-|
⑨①④⑥ |⑥⑦-⑧|
口②①⑩ |⑨-⑩-|
69
口④③口 |①②③④|
口⑤②⑥ |⑤-⑥-|
口①①口
口①①口

⑩⑩口⑨
口口口口
⑦⑩口口 |⑦⑧-⑨|
⑧⑩口⑨ |--⑩-|

不確定度: 0

最終更新:2016年10月16日 02:13