エキサイティング!!も・ちゃ・ちゃ☆
日向美ビタースイーツ♪

BASIC

Level: 5
BPM: 187
Notes: 300

1
口口口口 |----|
口口口口 |----|
口口口口 |----|
口口口口 |----|
2
口口口口 |①---|
②口口① |----|
口口口口 |②---|
口口口口 |----|
3
②②①① |①---|
④④③③ |②---|
口口口口 |③---|
口口口口 |④---|
4
口口口口 |①---|
口口口口 |----|
口①①口 |②---|
口②②口 |----|
5
口口口口 |①---|
口①①口 |----|
口口口口 |----|
口口口口 |----|
6
口口口④ |①---|
口口口③ |②---|
口口口② |③---|
口口口① |④---|
7
口口口口 |①---|
①①②② |----|
口口口口 |②---|
口口口口 |----|
8
口①口口 |①---|
口②口口 |②---|
口③口口 |③---|
口口口口 |----|
9
口口口口 |①---|
②②①① |----|
口口口口 |②---|
口口口口 |----|
10
口口①口 |①---|
口口②口 |②---|
口口③口 |③---|
口口④口 |④---|
11
口口口口 |①---|
口口口口 |----|
①①②② |②---|
口口口口 |----|
12
口③④口 |①---|
口①②口 |②---|
口口口口 |③---|
口口口口 |④---|
13
①口口口 |①---|
口②口口 |②---|
口口③口 |③---|
口口口④ |④---|
14
口口口口 |①---|
③③③③ |----|
口②②口 |②---|
①①口口 |③---|
15
口②①口 |①---|
口口口口 |----|
口口口口 |②---|
口口口口 |----|
16
口口①口 |①---|
口口②口 |②---|
口口③口 |③---|
口口口口 |----|
17
口口口口 |①---|
口①②口 |----|
口口口口 |②---|
口口口口 |----|
18
口口口口 |①---|
口①口口 |②---|
口②口口 |③---|
口③口口 |----|
19
口口口口 |①---|
口口口口 |----|
口②①口 |②---|
口口口口 |----|
20
口口口口 |①---|
口口①口 |②---|
口口②口 |③---|
口口③口 |----|
21
口口口口 |①---|
口口口口 |②---|
③④口口 |③---|
②①口口 |④---|
22
口口口口 |①---|
口口口口 |----|
口口①口 |----|
口口口口 |----|
23
口②①口 |①---|
口口口口 |----|
口口口口 |②---|
口口口口 |----|
24
口口①口 |①---|
口口②口 |②---|
口口③口 |③---|
口口口口 |----|
25
口口口口 |①---|
口①②口 |----|
口口口口 |②---|
口口口口 |----|
26
口口口口 |①---|
口①口口 |②---|
口②口口 |③---|
口③口口 |----|
27
口口口口 |①---|
口口口口 |----|
口②①口 |②---|
口口口口 |----|
28
口口口口 |①---|
口口①口 |②---|
口口②口 |③---|
口口③口 |----|
29
口④③口 |①---|
口口②口 |②---|
口①口口 |③---|
口口口口 |④---|
30
口口口口 |①---|
①口口口 |----|
口口口口 |----|
口口口口 |----|
31
口口口口 |①---|
④④②② |②---|
③③①① |③---|
口口口口 |④---|
32
口口口① |①---|
口口口② |----|
口口口口 |②---|
口口口口 |----|
33
口口口口 |①---|
口口①口 |----|
口口②口 |②---|
口口口口 |----|
34
口口口口 |①---|
口②口口 |----|
口①口口 |②---|
口口口口 |----|
35
①口口口 |①---|
②口口口 |②---|
③口口口 |③---|
④口口口 |④---|
36
口口口口 |①---|
口口口口 |----|
口②口口 |②---|
口①口口 |----|
37
口口口口 |①---|
口口②口 |----|
口口①口 |②---|
口口口口 |----|
38
口口口② |①---|
口口口① |----|
口口口口 |②---|
口口口口 |----|
39
④④①口 |①---|
口②口口 |②---|
③口口口 |③---|
口口口口 |④---|
40
口口①① |①---|
口口②口 |----|
口口口口 |----|
口口口口 |--②-|
41
口口口口 |--①-|
口①口口 |--②-|
口③②口 |--③-|
口口④口 |--④-|
42
口口口口 |----|
口②②口 |----|
口①口口 |①---|
口口口口 |②---|
43
口口①口 |----|
口口口口 |①---|
口口口口 |----|
口口口口 |----|
44
口口②② |①---|
口①③③ |----|
口口口口 |②---|
口口口口 |③---|
45
口口口口 |----|
口口口口 |--①-|
口①口口 |----|
口口②口 |②---|
46
口②②口 |①---|
口口①① |--②-|
口口口口 |----|
口口口口 |----|
47
口口口口 |----|
①②③④ |①---②-|
口口口口 |--③---|
口口口口 |④---|
48
口口口口 |①---|
口口口口 |----|
②口口② |②---|
口①①口 |----|
49
口口口口 |--①-|
口②②口 |----|
口口①口 |②---|
口口口口 |----|
50
口口口口 |①---|
口口口口 |----|
口①①口 |----|
口口口口 |----|
51
口口口口 |①---|
口①①口 |----|
口①①口 |----|
口口口口 |----|
52
口口口口 |①---|
口口口口 |----|
①①口口 |----|
口口口口 |---|
53
口口口口 |①---|
①①口口 |----|
口口口口 |----|
口口口口 |---|
54
口口口口 |①---|
口口口口 |----|
口口①① |----|
口口口口 |---|
55
口口口口 |①---|
口口①① |----|
口口口口 |----|
口口口口 |---|
56
口口口口 |①---|
口①①口 |----|
口①①口 |----|
口口口口 |----|
57
①①口口 |①--②|
②②口口 |--③-|
③③口口 |----|
口口口口 |----|
58
口口②② |①---|
口口①① |----|
口口口口 |②---|
口口口口 |----|
59
口①口口 |①---|
口②口口 |②---|
口③口口 |③---|
口④口口 |④---|
60
口口口口 |①---|
口口②② |----|
口口①① |②---|
口口口口 |----|
61
①口口口 |①---|
②口口口 |②---|
③口口口 |③---|
④口口口 |④---|
62
口口口口 |①---|
口口口② |----|
口①口口 |--②-|
口口口口 |----|
63
口①口口 |--①-|
口口②口 |----|
口口③口 |②---|
口口口口 |③---|
64
口①口口 |①---|
口②口口 |②---|
口③口口 |③---|
口④口口 |④---|
65
口口口口 |①---|
口口口口 |----|
口口①口 |----|
口口口口 |----|
66
口口②② |①---|
口口①① |--②-|
口口口口 |----|
口口口口 |----|
67
口①口口 |①---|
口②口口 |②---|
口③口口 |③---|
口④口口 |④---|
68
③口口口 |①---|
口口②② |--②-|
口口①① |----|
口口口口 |--③-|
69
口口口口 |--①-|
①口口口 |--②-|
②④口口 |--③-|
③口口口 |--④-|
70
口口口口 |----|
口口①口 |----|
口口口口 |--①-|
口口口口 |----|
71
口①口口 |①---|
口②口口 |②---|
口③口口 |③---|
口④口口 |④---|
72
口口口口 |①---|
口口口口 |②---|
口口④③ |③---|
口口②① |④---|
73
口口口口 |①---|
口②②① |----|
口口口口 |②---|
口③③口 |③---|
74
口口口口 |①---|
③③口口 |--②-|
①①②② |----|
口口口口 |③---|
75
口口口口 |--①-|
口口①① |----|
口口口口 |②---|
口②②口
76
口口口口 |①---|
③③口口 |--②-|
①①②② |----|
口口口口 |③---|
77
口③③口 |--①-|
口口①① |----|
口②②口 |②---|
口口口口 |③---|
78
口口口口 |①---|
①①口口 |----|
②②口口 |②---|
口口口口 |----|
79
口口口口 |①---|
口口①① |----|
口口②② |②---|
口口口口 |----|
80
①①①① |①---|
口口口口 |----|
口口口口 |----|
口口口口 |---|
81
口口口口 |①---|
口①①口 |----|
口口口口 |----|
口口口口 |---|
82
口口口口 |①---|
口口口口 |----|
口①①口 |----|
口口口口 |---|
83
口口口口 |①---|
口口口口 |----|
口口口口 |----|
口①①口 |---|
84
口口口口 |①---|
口口口口 |----|
口口口口 |----|
①①口口 |--|
85
口口口口 |①---|
口口口口 |----|
口口口口 |----|
口口①① |--|
86
口口口口 |①---|
口口口口 |----|
①①口口 |----|
口口口口 |--|
87
口口口口 |①---|
口口口口 |----|
口口①① |----|
口口口口 |----|

口口口口 |-|
口口口口
口口口口
口口口口
88
口口口口 |①---|
口①①口 |----|
口①①口 |----|
口口口口 |----|
89
口口口口 |----|
口口口口 |----|
口口口口 |----|
口口口口 |----|
90
口口口口 |----|
口口口口 |----|
口口口口 |----|
口口口口 |----|
91
口口口口 |----|
口口口口 |----|
口口口口 |----|
口口口口 |----|
92
口口口口 |----|
口口口口 |----|
口口口口 |----|
口口口口 |----|
93
口口口口 |①---|
口③③口 |--②-|
口口②② |----|
口①①口 |③---|
94
口口口口 |①---|
口口口口 |--②-|
①①口口 |----|
口②②口 |----|

不確定度: 0

最終更新:2016年08月09日 14:22