エキサイティング!!も・ちゃ・ちゃ☆
日向美ビタースイーツ♪

ADVANCED

Level: 7
BPM: 187
Notes: 584

1
口口口口 |----|
口口口口 |----|
口口口口 |----|
口①①口 |①---|
2
口口④口 |①---②-|
③⑥口① |--③---|
口口②⑤ |④---⑤-|
口口口口 |--⑥---|
3
③③④④ |①---|
口口口口 |②---|
口口口口 |③---|
①①②② |④---|
4
口②口口 |①---|
②①口口 |----|
口口①② |②---|
口口②口 |----|
5
口口①口 |①---|
口口口① |----|
①口口口 |----|
口①口口 |----|
6
口口④④ |①---|
口口口③ |②---|
口口口② |③---|
口口口① |④---|
7
口口口口 |①-②-|
③③⑥⑥ |③---|
②②⑤⑤ |④-⑤-|
①①④④ |⑥---|
8
①③③② |①---|
口口口口 |②---|
口口口口 |③---|
口口口口 |----|
9
口口口口 |①-②-|
⑥⑥③③ |③---|
⑤⑤②② |④-⑤-|
④④①① |⑥---|
10
③①口② |①--②|
口口口④ |--③-|
口口⑤口 |-④--|
口口口口 |⑤---|
11
口口口口 |①-②-|
③③⑥⑥ |③---|
②②⑤⑤ |④-⑤-|
①①④④ |⑥---|
12
①③②④ |①-②-|
口⑦⑧口 |③-④-|
口⑤⑥口 |⑤-⑥-|
口口口口 |⑦-⑧-|
13
③⑤④③ |①--②|
⑤口口④ |--③-|
①口口② |④--⑤|
⑥①②⑥ |--⑥-|
14
口③②④ |①---|
③①①② |----|
②①①③ |②---|
口②③口 |③-④-|
15
③口⑥口 |①-②-|
口④①口 |--③-|
口②⑤口 |④-⑤-|
口口口口 |--⑥-|
16
口口口口 |①-②-|
④口①④ |③-④-|
口②口口 |----|
口③口⑤ |--⑤-|
17
口口口口 |①-②-|
⑥②⑤口 |--③-|
口④①口 |④-⑤-|
③口口口 |--⑥-|
18
口口口① |①---|
口口口② |②---|
口口口口
口口口口

口口口④
口口口口
口口口③ |③---|
口口口口 |--④-|
19
③口⑥口 |①-②-|
口④①口 |--③-|
口②⑤口 |④-⑤-|
口口口口 |--⑥-|
20
口口口口 |①-②-|
④口①④ |③-④-|
口②⑤口 |----|
口③口口 |--⑤-|
21
③③①① |①---|
④④②② |②---|
口口口口 |③---|
口口口口 |④---|
22
口口口② |①---|
口口口口 |----|
口①①口 |----|
口口口口 |--②-|
23
③口⑥口 |①-②-|
口④①口 |--③-|
口②⑤口 |④-⑤-|
口口口口 |--⑥-|
24
口口口口 |①-②-|
④口①④ |③-④-|
口②口口 |----|
口③口⑤ |--⑤-|
25
口口口口 |①-②-|
⑥②⑤口 |--③-|
口④①口 |④-⑤-|
③口口口 |--⑥-|
26
口口口① |①---|
口口口② |②---|
口口口口
口口口口

口口口④
口口口口
口口口③ |③---|
口口口口 |--④-|
27
③口⑥口 |①-②-|
口④①口 |--③-|
口②⑤口 |④-⑤-|
口口口口 |--⑥-|
28
口口口口 |①-②-|
④口①④ |③-④-|
口②⑤口 |----|
口③口口 |--⑤-|
29
①②①② |①---②-|
⑤④⑤④ |--③---|
③口口口 |④---⑤-|
口口口⑥ |--⑥---|
30
口口口口 |①---|
口口口口 |----|
口①①口 |----|
口口口口 |----|
31
口口口① |①---|
⑤口②② |②---|
口③③③ |③---|
④④④④ |④-⑤-|
32
④①⑤③ |①---|
口⑥②口 |②-③-|
口口口口 |--④-|
口口口口 |⑤-⑥-|
33
口口口口 |--①-|
⑤口口③ |②-③-|
口④口② |④---|
口口口① |--⑤-|
34
口⑥口⑦ |①---|
口口⑤口 |②-③-|
口④口② |④-⑤-|
口①③口 |⑥-⑦-|
35
口口①口 |--①-|
口②口⑤ |②-③-|
口口③口 |④---|
口④口口 |--⑤-|
36
口口口口 |①---②-|
②口口⑤ |--③---|
口③口① |④---|
④口口口 |--⑤-|
37
口口口口 |①---②-|
口口口口 |--③---|
③口口①
口②口口

口口口口
口④口口
口口口⑤ |④---|
口口口口 |--⑤-|
38
口②⑤口 |①---②-|
口⑥⑥口 |--③-|
③口口口 |④---⑤-|
④口口① |--⑥-|
39
口④④口 |①---|
③口口③ |②---|
②口口② |③---|
口①①口 |④---|
40
口口口口 |-①--|
口口⑤口 |②--③|
①②③④ |--④-|
口口口口 |--⑤-|
41
④③②① |①-②-|
⑤⑥⑦⑧ |③-④-|
口口口口 |⑤-⑥-|
口口口口 |⑦-⑧-|
42
①口③口 |----|
口②③口 |----|
口口③口 |①-②-|
口口口口 |③---|
43
口口③③ |--①-|
口口口口 |②---|
①口口口 |--③-|
口②口口 |----|
44
⑥⑥⑤⑤ |①-②-|
⑥⑥⑤⑤ |③-④-|
③④口口 |⑤---|
①②口口 |⑥---|
45
口口口口 |----|
口口口① |--①-|
口口口② |②-③-|
口口③口 |----|
46
⑤口①⑤ |①-②-|
⑤②口⑤ |③-④-|
口口③口 |--⑤-|
口④口口 |----|
47
口口口口 |----|
口⑤⑤口 |①---②-|
口⑤⑤① |--③---|
④③②口 |④--⑤|
48
口口口口 |----|
①口口① |----|
①口口① |-①--|
口口口口 |----|
49
口口口④ |--①-|
口③口⑤ |②-③-|
口口②⑥ |④---⑤-|
口①口口 |--⑥---|
50
④④口口 |①-②-|
口口口口 |③-④-|
口②口口 |----|
③口①口 |----|
51
口口口口 |①---|
口口口口 |----|
①①口口 |----|
口口口② |②---|
52
④口口口 |①---|
③口口口 |②---|
②口口口 |③--④|
①口口口 |---|
53
口④口口 |①---|
口③口口 |②---|
口②口口 |③--④|
口①口口 |---|
54
口口④口 |①---|
口口③口 |②---|
口口②口 |③--④|
口口①口 |---|
55
口口口④ |①---|
口口口③ |②---|
口口口② |③--④|
口口口① |---|
56
⑤口口⑥ |①---②-|
⑤②③⑥ |--③---|
口②③口 |④---⑤-|
④①①④ |--⑥---|
57
④①①口 |①--②|
⑤③③口 |--③-|
⑥口口口 |--④-|
口②②口 |⑤-⑥-|
58
④口⑤④ |①-②-|
口口③③ |③---|
口口②② |④---|
口口①① |--⑤-|
59
口③口口 |--①-|
①口④口 |②-③-|
口②口口 |④---|
口口口⑤ |⑤---|
60
④口⑥④ |①-②-|
③③口口 |③---|
②②口⑤ |④---|
①①口口 |⑤-⑥-|
61
口口口口 |--①-|
①口口④ |--②-|
口口②口 |--③-|
口③口口 |--④-|
62
口口口口 |--①-|
口⑤口口 |②---|
口①④口 |--③-|
口口②③ |④-⑤-|
63
⑤口口④ |--①-|
⑦口③⑥ |②-③-|
口②口口 |④-⑤-|
①口口口 |⑥-⑦-|
64
③⑤⑤④ |①---|
口①②口 |②---|
④②①③ |③---|
口口口口 |④-⑤-|
65
口口口口 |--①-|
②口口① |②---|
口口口口 |----|
口口口口 |----|
66
④④口⑤ |①-②-|
口口③③ |③-④-|
口口②② |----|
口口①① |--⑤-|
67
口③口口 |--①-|
①口④口 |②-③-|
口②口口 |④---|
口口口⑤ |⑤---|
68
⑤口④④ |①-②-|
③③口口 |③-④-|
②②口口 |----|
①①口⑤ |--⑤-|
69
口口口③ |--①-|
口②①口 |--②-|
口①②口 |--③-|
③④④口 |--④-|
70
口口口口 |--①-|
②⑤口① |②---|
②口④① |--③-|
口口口③ |④-⑤-|
71
①口口② |①-②-|
③口口④ |③-④-|
⑤口口⑥ |⑤-⑥-|
⑦口口⑧ |⑦-⑧-|
72
④⑤⑤③ |①---|
口②①口 |②---|
③①②④ |③---|
口口口口 |④-⑤-|
73
口口口口 |----|
①①口口 |----|
②②口口 |①---|
口口口口 |②---|
74
口口口口 |①---|
口④②口 |②-③-|
⑤⑤口口 |--④-|
①①③③ |⑤---|
75
③④①④ |①-②-|
口口口口 |--③-|
口口②② |④---|
口口口口
76
口口口口 |①---|
口④②口 |②-③-|
⑤口⑤口 |--④-|
①③①③ |⑤---|
77
口③①口 |①-②-|
⑤口⑤口 |--③-|
口②口② |④---|
口④口④ |⑤---|
78
口口口① |①---②-|
口②口口 |--③---|
⑤口口③ |④---|
口④口口 |--⑤-|
79
口口口口 |①---②-|
口口①口 |--③---|
口⑤②⑤ |④---|
口④③④ |⑤---|
80
①口①口 |①---|
②口口口 |②---|
③口口口 |③--④|
④口口口 |---|
81
口口口① |①---|
口口口② |②---|
口口口③ |③--④|
口口口④ |---|
82
口①口口 |①---|
口②口口 |②---|
口③口口 |③--④|
口④口口 |---|
83
口口①口 |①---|
口口②口 |②---|
口口③口 |③--④|
口口④口 |---|
84
①口口口 |①---|
②口口口 |②--③|
口口③口 |---④|
④口口口 |--|
85
口口口① |①---|
口口口② |②--③|
口③口口 |---④|
口口口④ |--|
86
口②①口 |①-②-|
口④③口 |③-④-|
口⑥⑤口 |⑤-⑥-|
口口⑦口 |⑦-|
87
⑦口口⑥ |①-②-|
⑤口口④ |③-④-|
③口口② |⑤-⑥-|
口①口口 |⑦---|

口口口口 |-|
口口口口
口口口口
口口口口
88
口口口口 |①---|
口①①口 |----|
口①①口 |----|
口口口口 |----|
89
口口口口 |----|
口口口口 |----|
口口口口 |----|
口口口口 |----|
90
口口口口 |----|
口口口口 |----|
口口口口 |----|
口口口口 |----|
91
口口口口 |----|
口口口口 |----|
口口口口 |----|
口口口口 |----|
92
口口口口 |----|
口口口口 |----|
口口口口 |----|
口口口口 |----|
93
口⑤⑤口 |①--②|
④④②② |--③-|
口⑥⑥口 |-④--|
③③①① |⑤-⑥-|
94
②口口① |①--②|
口③③口 |--③-|
①口口②
口口口口

口口口④
口口口口
口口口口 |----|
口口口口 |----④-|

不確定度: 0

最終更新:2016年08月09日 14:19