エキサイティング!!も・ちゃ・ちゃ☆
日向美ビタースイーツ♪

EXTREME

Level: 9
BPM: 187
Notes: 705

1
口口口口 |----|
口口口① |----|
口口口② |----|
口口口③ |①-②-③-|
2
⑨④③⑧ |①---②-|
②⑥⑤口 |--③-④-|
口①⑦口 |⑤-⑥-⑦-|
口口口口 |--⑧-⑨-|
3
口⑤③⑥ |①---②-|
⑤口口③ |③---④-|
⑦口口① |⑤---⑥-|
②⑦①④ |⑦---|
4
④③③④ |①--②|
口①①口 |----|
口②②口 |③--④|
口口口口 |----|
5
口口口口 |①---|
口①①② |②---|
口口③口 |③---|
口④口口 |④---|
6
④口④口 |①---|
口口口③ |②---|
口口口② |③---|
口口口① |④---|
7
口⑥⑤④ |①-②-|
口⑥⑤④ |③---|
①②③口 |④-⑤-|
①②③口 |⑥---|
8
口口口口 |①---|
③口口口 |②---|
②口口口 |③---|
①口口口 |----|
9
④④口口 |①-②-|
⑤⑤③③ |③---|
⑥⑥②② |④-⑤-|
口口①① |⑥---|
10
口口口口 |①--②|
口口②口 |--③-|
④口口口 |-④--|
口③⑤① |⑤---|
11
①②③口 |①-②-|
①②③口 |③---|
口⑥⑤④ |④-⑤-|
口⑥⑤④ |⑥---|
12
①⑫⑪④ |①-②-|
②⑩⑨口 |③-④-|
③⑧⑦口 |⑤⑥⑦⑧|
口⑥⑤口 |⑨⑩⑪⑫|
13
口口口口 |①--②|
②⑥⑥① |--③-|
②⑤④① |④--⑤|
⑤③③④ |--⑥-|
14
口口口口 |①---|
①口口① |----|
①口口①
口口口口

②口口③
④口口口
口口口口 |②---|
口③②口 |③-④-|
15
⑥口口口 |①-②-|
口①②⑤ |--③-|
口口口④ |④-⑤-|
口口口③ |--⑥-|
16
口①口口 |①-②-|
②③口口 |③-④-|
④口口⑤ |----|
口口口口 |--⑤-|
17
口⑥口口 |①-②-|
⑤口口口 |--③-|
④②①口 |④-⑤-|
③口口口 |--⑥-|
18
④口口③ |①---|
口口③② |②---|
口口②① |③---|
口口①口 |--④-|
19
口口口口 |①-②-|
①口口⑤ |--③-|
②口口④ |④-⑤-|
⑥口口③ |--⑥-|
20
③②口口 |①-②-|
④①口口 |③-④-|
口口口口 |----|
口口口⑤ |--⑤-|
21
口口⑥① |①---|
④口口口 |②---|
口口口③ |③--④|
口⑤②口 |⑤--⑥|
22
口口口口 |----|
口口口口 |----|
口口口口 |----|
①口口口 |--①-|
23
⑧口口① |①-②-|
②⑥口③ |③-④-|
①⑤口⑤ |⑤-⑥-|
口④口⑦ |⑦-⑧-|
24
口②③① |①-②-|
口口口口 |③-④-|
口④④口 |----|
口口口⑤ |--⑤-|
25
①口口⑧ |①-②-|
③口⑥② |③-④-|
⑤口⑤① |⑤-⑥-|
⑦口④口 |⑦-⑧-|
26
③②①④ |①---|
口口口① |②---|
口口口② |③---|
口口口③ |--④-|
27
⑦口④⑧ |①-②-|
⑤口⑤① |③-④-|
③口⑥② |⑤-⑥-|
①口口口 |⑦-⑧-|
28
口①口口 |①-②-|
口③口② |③-④-|
口口口④ |----|
⑤口口口 |--⑤-|
29
③①③① |①--②|
⑤口口④ |--③-|
口⑥⑥口 |④--⑤|
口⑤④② |--⑥-|
30
口口口口 |①---|
口①①口 |----|
口口口口 |----|
口口口口 |----|
31
口口⑤④ |①---|
口口③④ |②---|
口②③④ |③---|
①②③④ |④-⑤-|
32
口①口④ |①---|
③②⑤口 |②-③-|
口⑥口口 |--④-|
口口口口 |⑤-⑥-|
33
①口口口 |--①-|
②口口口 |②-③-|
③口口⑤ |④---|
④口口口 |--⑤-|
34
口口⑦② |①---|
口口③口 |②-③-|
口④口⑥ |④-⑤-|
口口⑤① |⑥-⑦-|
35
①①口⑧ |①-②-|
③③口② |③-④-|
⑤⑤④口 |⑤-⑥-|
⑦⑦口⑥ |⑦-⑧-|
36
②④③口 |①--②|
口口口① |--③-|
口口⑥口 |④---|
口⑤口口 |--⑤⑥|
37
口③④② |①--②|
口①口口 |--③-|
口口口口 |④---|
⑤⑤口口 |--⑤-|
38
⑤口口② |①--②|
口⑥⑥口 |--③-|
①①④④ |④--⑤|
口口③③ |--⑥-|
39
口④②口 |①---|
④口口② |②---|
①口口③ |③---|
口①③口 |④---|
40
口口口④ |-①--|
口口③口 |②--③|
口②口口 |--④-|
①⑥⑤口 |--⑤⑥|
41
⑤⑥⑦⑧ |①②③④|
口口口口 |⑤⑥⑦⑧|
④③②①
口口口口

口口口口
⑫⑪⑩⑨
口口⑯口 |⑨⑩⑪⑫|
⑮⑭⑬口 |⑬⑭⑮⑯|
42
①④④口 |----|
口⑤⑤② |①-②-③-|
③⑥⑥口 |④-⑤-|
口口口⑦ |⑥--⑦|
43
口③④② |-①--|
口口口口 |②-③-|
口口⑤⑤ |④-⑤-|
①口口口 |----|
44
⑧⑥口口 |①②③-|
口口⑦④ |④-⑤-⑥-|
口⑤口口 |⑦---|
①②③⑧ |⑧---|
45
口口口口 |----|
口口③口 |--①---|
口②口口 |②--③|
①口口口 |----|
46
⑤⑬⑨① |①②③④|
⑥⑭⑩② |⑤⑥⑦⑧|
⑦⑮⑪③ |⑨⑩⑪⑫|
⑧⑯⑫④ |⑬⑭⑮⑯|
47
②口口① |①---|
③口口口 |②---③-|
④口⑥⑥ |--④---|
⑤口口口 |⑤--⑥|
48
口口口口 |----|
口口口口 |----|
口口口口 |-①--|
口口①① |----|
49
口口口口 |--①-|
口④口口 |②-③-|
③口⑤口 |④--⑤|
①②口⑥ |--⑥-|
50
④④口① |①-②-|
口口②⑤ |③-④-|
口口⑥口 |⑤-⑥-|
③⑦口⑧ |⑦-⑧-|
51
口口①① |①---|
口口口口 |----|
口口口口 |----|
口口口口 |----|
52
口⑦口口 |①-②-|
口⑤⑧⑧ |③-④-|
口③口⑥ |⑤-⑥⑦|
口①④② |-⑧-|
53
⑦口⑧⑧ |①-②-|
⑤口口口 |③-④-|
③口口⑥ |⑤-⑥⑦|
①口④② |-⑧-|
54
口⑦口口 |①-②-|
口⑤④② |③-④-|
口③口⑥ |⑤-⑥⑦|
口①⑧⑧ |-⑧-|
55
口口口② |①-②-|
⑤⑦⑥④ |③-④-|
③⑨⑧口 |⑤⑥⑦⑧|
①⑪⑩口 |⑨⑩⑪|
56
①④④① |①---②-|
口⑥⑥口 |--③---|
②⑤⑤② |④---⑤-|
③口口③ |--⑥---|
57
①口口① |①--②|
②口口② |--③-|
③口口③ |--④-|
口⑥⑤④ |⑤-⑥-|
58
①②③口 |①-②-|
①②③口 |③---|
口④④⑤ |④---|
④口口④ |--⑤-|
59
口⑤口口 |--①-|
④口口口 |②-③-|
③口口口 |④---|
口②①口 |⑤---|
60
④⑥⑤④ |①-②-|
口④④口 |③---|
口③②① |④---|
口③②① |⑤-⑥-|
61
口口口口 |--①-|
口③②① |--②-|
④口口口 |--③-|
口口口口 |--④-|
62
口口口⑤ |--①-|
口口口④ |②---|
口口口③ |--③-|
口①②口 |④-⑤-|
63
口⑤④口 |--①-|
③⑦⑥口 |②-③-|
②口口口 |④-⑤-|
①口口口 |⑥-⑦-|
64
①③④② |①---|
口口口⑤ |②---|
口口口口 |③---|
②④③① |④-⑤-|
65
口口口口 |--①-|
口口口口 |②---|
口②①口 |----|
口口口口 |----|
66
④口口④ |①-②-|
口④④口 |③-④-|
口③②①
口③②①

口口口口
口口口口
口口口⑤ |----|
口口口口 |--⑤-|
67
口口口口 |--①-|
口口口口 |②-③-|
口口口⑤ |④---|
③②①④ |⑤---|
68
①②③⑤ |①-②-|
①②③口 |③-④-|
口④④口 |----|
④口⑤④ |--⑤-|
69
①③②口 |--①-|
口口口口 |--②-|
口④④口 |--③-|
③①口② |--④-|
70
口口口口 |--①-|
②口⑤① |②---|
口④口口 |--③-|
口口③口 |④-⑤-|
71
口①口② |①-②-|
③口⑧口 |③-④-|
口口⑦④ |⑤-⑥-|
⑤口⑥口 |⑦-⑧-|
72
③①③① |①---|
口口口口 |②---|
口⑤⑤口 |③---|
④②④② |④-⑤-|
73
①口口① |----|
口口口口 |----|
口口口口 |①---|
口②②口 |②---|
74
⑤③口口 |①---|
③⑤口口 |②-③-|
口口口② |--④-|
①口④① |⑤---|
75
口口②④ |①-②-|
口口④② |--③-|
口口口口 |④---|
③①口口
76
口①③⑤ |①---|
口口⑤③ |②-③-|
口口口① |--④-|
口口④② |⑤---|
77
②④⑤口 |①-②-|
④②口口 |--③-|
⑤口口口 |④---|
③①口口 |⑤---|
78
①口口口 |①---②-|
口口②口 |--③---|
⑤口口③ |④---|
口④口口 |--⑤-|
79
②①④口 |①---②-|
口③①④ |--③---|
口口②口 |④---|
口⑤⑤口 |⑤---|
80
①口口① |①-②-|
③口口口 |③-④-|
口口④②
口口口口

口口口⑧
口口口⑥
⑤口口口 |⑤-⑥⑦|
⑦口口口 |-⑧-|
81
口①口口 |①-②-|
口③口⑧ |③-④-|
口⑤口⑥ |⑤-⑥⑦|
口⑦④② |-⑧-|
82
①口④② |①-②-|
③口口口 |③-④-|
⑤口口⑥ |⑤-⑥⑦|
⑦口口⑧ |-⑧-|
83
口①口口 |①-②-|
口③④② |③-④-|
口⑤口⑥ |⑤-⑥⑦|
口⑦口⑧ |-⑧-|
84
①口④② |①-②-|
③口口⑥ |③-④⑤|
⑤口口⑧ |-⑥-⑦|
⑦口口口 |-⑧|
85
口①口口 |①-②-|
口③口⑧ |③-④⑤|
口⑤⑥口 |-⑥-⑦|
口⑦④② |-⑧|
86
①口口口 |①-②-|
③口④口 |③--④|
④口口② |---⑤|
⑤口⑤口 |--|
87
③口②口 |①--②|
③口口② |--③-|
口①①口
口口口口

口口口④
口口④口
口口⑥⑥ |④-⑤-|
口口⑤⑤ |-⑥--|

口口口口 |-|
口口口口
口口口口
口口口口
88
口①①口 |①---|
口①口① |----|
①①口口 |----|
①①口口 |----|
89
口口口口 |----|
口口口口 |----|
口口口口 |----|
口口口口 |----|
90
口口口口 |----|
口口口口 |----|
口口口口 |----|
口口口口 |----|
91
口口口口 |----|
口口口口 |----|
口口口口 |----|
口口口口 |----|
92
口口口口 |----|
口口口口 |----|
口口口口 |----|
口口口口 |----|
93
①③①③ |①--②|
口⑥⑤口 |--③-|
口⑤⑥口 |-④--|
④②④② |⑤-⑥-|
94
③口口③ |①--②|
①口口② |--③-|
①口口②
口口口口

口口口口
口口口口
④④④口 |----|
④口④④ |----④-|

不確定度: 0

最終更新:2016年08月09日 14:14