Ready Go!!
荒牧陽子

BASIC

Level: 5
BPM: 220
Notes: 350

1
口口口口 |----|
口口口口 |----|
口口口口 |----|
口口口口 |----|
2
口口口口 |①---|
口口③口 |--②-|
口②口口 |----|
①口口口 |③---|
3
口口口口 |①---|
口③口口 |--②-|
口口②口 |----|
口口口① |③---|
4
口口口口 |①---|
口口③口 |--②-|
口②口口 |----|
①口口口 |③---|
5
口③②口 |①---|
④口口① |②---|
口口口口 |③---|
口口口口 |④---|
6
口口口口 |①---|
口口③口 |--②-|
口②口口 |----|
①口口口 |③---|
7
口口口口 |①---|
口③口口 |--②-|
口口②口 |----|
口口口① |③---|
8
口口口口 |①---|
口口③口 |--②-|
口②口口 |----|
①口口口 |③---|
9
口③②口 |①---|
④口口① |②---|
口口口口 |③---|
口口口口 |④---|
10
口口口口 |①---|
口口口口 |②---|
口口口口 |③---|
①②③④ |④---|
11
口口口口 |①---|
口②②口 |--②-|
口①①口 |----|
口口口口 |----|
12
④③②① |①---|
口口口口 |②---|
口口口口 |③---|
口口口口 |④---|
13
口口口口 |①---|
②①①② |--②-|
③口口③ |--③-|
口口口口 |----|
14
口口口口 |①---|
口口口口 |②---|
口口口口 |③---|
①②③④ |④---|
15
口口口口 |①---|
口②②口 |--②-|
口①①口 |----|
口口口口 |----|
16
④③②① |①---|
口口口口 |②---|
口口口口 |③---|
口口口口 |④---|
17
口口口口 |①---|
②①①② |--②-|
③口口③ |--③-|
口口口口 |----|
18
口口口口 |①---|
口口口口 |----|
口口口口 |----|
口①①口 |----|
19
口口口口 |----|
②口口② |--①-|
①口口① |--②-|
口口口口 |----|
20
口①①口 |①---|
口口口口 |----|
口口口口 |----|
口口口口 |----|
21
口口口口 |----|
口①①口 |----|
口口口口 |--①-|
口口口口 |----|
22
口口口口 |①---|
口口口口 |----|
①口口① |----|
口口口口 |----|
23
口口口口 |----|
口口口口 |--①-|
口②②口 |--②-|
①口口① |----|
24
口口口口 |①---|
口①①口 |----|
口口口口 |----|
口口口口 |----|
25
口口口口 |----|
口口口口 |----|
口口口口 |----|
口口口口 |----|
26
口口口口 |①---|
口口口口 |②---|
口口口口 |③---|
①②③④ |④---|
27
口口口口 |①---|
口②②口 |--②-|
口①①口 |----|
口口口口 |----|
28
④③②① |①---|
口口口口 |②---|
口口口口 |③---|
口口口口 |④---|
29
口口口口 |①---|
②①①② |--②-|
③口口③ |--③-|
口口口口 |----|
30
口口口口 |①---|
口口口口 |②---|
口口口口 |③---|
①②③④ |④---|
31
口口口口 |①---|
口②②口 |--②-|
口①①口 |----|
口口口口 |----|
32
④③②① |①---|
口口口口 |②---|
口口口口 |③---|
口口口口 |④---|
33
口口口口 |①---|
②①①② |--②-|
③口口③ |--③-|
口口口口 |----|
34
口口口口 |①---|
口口口口 |----|
口口口口 |----|
口①①口 |----|
35
口口口口 |----|
②口口② |--①-|
①口口① |--②-|
口口口口 |----|
36
口①①口 |①---|
口口口口 |----|
口口口口 |----|
口口口口 |----|
37
口口口口 |----|
口①①口 |----|
口口口口 |--①-|
口口口口 |----|
38
口口口口 |①---|
口口口口 |----|
①口口① |----|
口口口口 |----|
39
口口口口 |----|
口口口口 |--①-|
口②②口 |--②-|
①口口① |----|
40
口口口口 |①---|
口①①口 |----|
口口口口 |----|
口口口口 |----|
41
口①口口 |----|
①口口口 |----|
口口口口 |----|
口口口口 |①---|
42
口口①口 |①---|
口口口① |----|
②口口口 |----|
口②口口 |②---|
43
口口口口 |①---|
口口口口 |----|
口口口① |----|
口口①口 |----|
44
口③④口 |①---|
口①②口 |②---|
口口口口 |③---|
口口口口 |④---|
45
①口口① |①---|
②口口② |--②-|
③口口口 |----|
口③口口 |③---|
46
口②口口 |①---|
②口口口 |----|
口口口① |----|
口口①口 |②---|
47
口口①口 |①---|
口口口① |----|
口口口口 |----|
口口口口 |----|
48
口口口口 |①---|
口口口口 |②---|
口②①口 |③---|
口④③口 |④---|
49
口③口口 |①---|
③口口口 |--②-|
②口口② |----|
①口口① |③---|
50
口口①口 |①---|
口口口① |----|
②口口口 |----|
口②口口 |②---|
51
口口口口 |①---|
口口口口 |----|
口口口① |----|
口口①口 |----|
52
口③④口 |①---|
口①②口 |②---|
口口口口 |③---|
口口口口 |④---|
53
①口口① |①---|
口口口口 |----|
②②口口 |----|
口口口口 |②---|
54
口口口口 |①---|
①①口口 |----|
口口②② |----|
口口口口 |②---|
55
口②②口 |①---|
口口①① |----|
口口口口 |----|
口口口口 |②---|
56
①口口① |①---|
②口口② |②---|
③口口③ |③---|
④口口④ |④---|
57
口②②口 |①---|
口口口口 |--②-|
③③口口 |----|
口①①口 |③---|
58
口口口口 |①---|
①①口口 |----|
口口②② |----|
口口口口 |②---|
59
口②②口 |①---|
口口①① |----|
口口口口 |----|
口口口口 |②---|
60
①口口① |①---|
②口口② |②---|
③口口③ |③---|
④口口④ |④---|
61
口②②口 |①---|
口口口口 |--②-|
③③口口 |----|
口①①口 |③---|
62
口口口口 |①---|
①①口口 |----|
口口②② |----|
口口口口 |②---|
63
口②②口 |①---|
口口①① |----|
口口口口 |----|
口口口口 |②---|
64
①口口① |①---|
②口口② |②---|
③口口③ |③---|
④口口④ |④---|
65
口②②口 |①---|
口口口口 |--②-|
③③口口 |----|
口①①口 |③---|
66
口口口口 |①---|
①①口口 |----|
口口②② |----|
口口口口 |②---|
67
口口口口 |①---|
口口①① |----|
口口口口 |----|
口②②口 |②---|
68
口口口口 |①---|
口②②口 |----|
口①①口 |----|
口口口口 |②---|
69
②①①② |①---|
③口口③ |--②-|
口口口口 |----|
口口口口 |③---|
70
口口口口 |①---|
口口口口 |----|
①口口① |----|
口口口口 |----|
71
口口口口 |①---|
口口口口 |②---|
口①②口 |③---|
口③④口 |④---|
72
口口口口 |①---|
口口④③ |②---|
口口口② |③---|
口口口① |④---|
73
口口口口 |①---|
②①口口 |②---|
③口口口 |③---|
④口口口 |④---|
74
口④口口 |①---|
口③口口 |②---|
口②口口 |③---|
口①口口 |④---|
75
口口①口 |①---|
口口②口 |②---|
口口③口 |③---|
口口④口 |④---|
76
口口④口 |①---|
口口③口 |②---|
口口口② |③---|
口口口① |④---|
77
口①口口 |①---|
口②口口 |②---|
③口口口 |③---|
④口口口 |④---|
78
口口④口 |①---|
口③口口 |②---|
口口②口 |③---|
口①口口 |④---|
79
口①口口 |①---|
口口②口 |②---|
口③口口 |③---|
口口④口 |④---|
80
口口口④ |①---|
口口口③ |②---|
口口口② |③---|
口口口① |④---|
81
①口口口 |①---|
②口口口 |②---|
③口口口 |③---|
④口口口 |④---|
82
口口④口 |①---|
口③口口 |②---|
口口②口 |③---|
口①口口 |④---|
83
口①口口 |①---|
口口②口 |②---|
口③口口 |③---|
口口④口 |④---|
84
口口口④ |①---|
口口口③ |②---|
口口口② |③---|
口口口① |④---|
85
①口口口 |①---|
②口口口 |②---|
③口口口 |③---|
④口口口 |④---|
86
口口口口 |①---|
口③③口 |--②-|
口②②口 |----|
口①①口 |③---|
87
②③③② |--①-|
①口口① |----|
口口口口 |②---|
口口口口 |--③-|
88
口口口口 |----|
口口口口 |----|
口口口口 |----|
口口口口 |----|
89
口口口口 |----|
口口口口 |----|
口口口口 |----|
口口口口 |----|
90
口口口口 |①---|
①①②② |--②-|
③③④④ |--③-|
口口口口 |--④-|
91
口口口口 |--①-|
口口口口 |②---|
口口口口 |----|
口①②口 |----|


不确定度: 0

タグ:

+ タグ編集
  • タグ:

このサイトはreCAPTCHAによって保護されており、Googleの プライバシーポリシー利用規約 が適用されます。

最終更新:2012年11月10日 14:31