ほっしーの!
fourfolium

BASIC

Level: 3
BPM: 190
Notes: 187

1
口口口口 |----|
口口口口 |----|
口口口口 |----|
口口口口 |----|
2
①②口口 |①---|
口口口口 |----|
口口口口 |②---|
口口口口 |----|
3
口口口口 |①---|
口口②① |----|
口口口口 |②---|
口口口口 |----|
4
口口口口 |①---|
口口口口 |----|
①②口口 |②---|
口口口口 |----|
5
口②②口 |①---|
口口①口 |----|
口口口口 |②---|
口口口口 |----|
6
口口口① |①---|
口口口② |----|
口口口口 |②---|
口口口口 |----|
7
口口口口 |①---|
口口口口 |----|
口口口① |②---|
口口口② |----|
8
口口口口 |①---|
口口口口 |----|
口口②口 |②---|
口口①口 |----|
9
口口②口 |①---|
口口①口 |----|
口口口口 |②---|
口口口口 |----|
10
①口口口 |①---|
②口口口 |----|
口口口口 |②---|
口口口口 |----|
11
口口口口 |①---|
口口口口 |----|
①口口口 |②---|
②口口口 |----|
12
口口口口 |①---|
口口口口 |----|
口口②口 |②---|
口口①口 |----|
13
口②口口 |①---|
口①口口 |----|
口口口口 |②---|
口口口口 |----|
14
口口①口 |①---|
口口②口 |----|
口口口口 |②---|
口口口口 |----|
15
口口口口 |①---|
口口口口 |----|
口口①口 |②---|
口口②口 |----|
16
口口口口 |①---|
口口口口 |----|
口②口口 |②---|
口①口口 |----|
17
①口口口 |①---|
口②口口 |②---|
口口③口 |③---|
口口口④ |④---|
18
口口口口 |①---|
口口口口 |----|
口②口口 |②---|
口①口口 |----|
19
口②口口 |①---|
口①口口 |----|
口口口口 |②---|
口口口口 |----|
20
口口口① |①---|
口口②口 |②---|
口③口口 |③---|
④口口口 |④---|
21
口口口口 |①---|
口④④④ |②---|
口口③③ |③---|
口①口② |④---|
22
①口口口 |①---|
②口口口 |----|
口口口口 |②---|
口口口口 |----|
23
口口口口 |①---|
口口口口 |----|
①口口口 |②---|
②口口口 |----|
24
口口口口 |①---|
口口口口 |----|
口②口口 |②---|
口①口口 |----|
25
①口口口 |①---|
口②口口 |②---|
口口③口 |③---|
口口口④ |④---|
26
口口口口 |①---|
口口口口 |----|
口②口口 |②---|
口①口口 |----|
27
口②口口 |①---|
口①口口 |----|
口口口口 |②---|
口口口口 |----|
28
口口口① |①---|
口口②口 |②---|
口③口口 |③---|
④口口口 |④---|
29
口口口口 |①---|
④④口口 |②---|
口口③③ |③---|
口①口② |④---|
30
口口①① |①---|
口口口口 |----|
口口口口 |----|
口口口口 |----|
31
口口口口 |①---|
口口口口 |----|
口①口口 |----|
口口口口 |----|
32
口口口口 |①---|
口口口口 |----|
口口②口 |②---|
口口①口 |----|
33
口口②口 |①---|
口口①口 |----|
口口口口 |②---|
口口口口 |----|
34
口口口口 |①---|
①②③④ |②---|
口口口口 |③---|
口口口口 |④---|
35
口口口口 |①---|
口口口口 |②---|
④③②① |③---|
口口口口 |④---|
36
口口口口 |①---|
口口口口 |②---|
口口口口 |③---|
①②③④ |④---|
37
口口口口 |①---|
口①①口 |----|
口口口口 |----|
口口口口 |----|
38
口口口口 |①---|
口口口口 |②---|
口口口口 |③---|
①②③④ |④---|
39
③口口③ |①---|
口②②口 |②---|
口①①口 |③---|
口口口口 |----|
40
口口口口 |①---|
口口口口 |②---|
口口口口 |③---|
④③②① |④---|
41
③④口③ |①---|
口②②口 |②---|
口①①口 |③---|
口口口口 |④---|
42
②口①② |①---|
口③口口 |----|
口口口口 |②---|
口口口口 |③---|
43
口口口口 |①---|
②口①② |----|
口口口口 |②---|
口口口口 |----|
44
口口口口 |①---|
口口口口 |②---|
口③④口 |③---|
口①②口 |④---|
45
③口口③ |①---|
口①②口 |②---|
口口口口 |③---|
口口口口 |----|
46
口口口口 |①---|
口口口口 |②---|
口口口口 |③---|
①②③④ |④---|
47
③口口③ |①---|
口②②口 |②---|
口①①口 |③---|
口口口口 |----|
48
口口口口 |①---|
口口口口 |②---|
口口口口 |③---|
④③②① |④---|
49
③④口③ |①---|
口②②口 |②---|
口①①口 |③---|
口口口口 |④---|
50
②口①② |①---|
口③口口 |----|
口口口口 |②---|
口口口口 |③---|
51
口口口口 |①---|
②口①② |----|
口口口口 |②---|
口③口口 |③---|
52
口口口口 |①---|
口④口口 |②---|
口②③口 |③---|
口口①口 |④---|
53
口口口口 |①---|
②口①② |----|
口口口口 |②---|
口口口口 |----|
54
①①①① |①---|
口口口口 |----|
口口口口 |----|
口口口口 |----|
55
口口口口 |①---|
口口口口 |----|
①口口口 |②---|
②口口口 |----|
56
口口口口 |①---|
口口口口 |----|
口②口口 |②---|
口①口口 |----|
57
口②口口 |①---|
口①口口 |----|
口口口口 |②---|
口口口口 |----|
58
口口口① |①---|
口口口② |----|
口口口口 |②---|
口口口口 |----|
59
口口口口 |①---|
口口口口 |----|
口口口① |②---|
口口口② |----|
60
口口口口 |①---|
口口口口 |----|
口②口口 |②---|
口①口口 |----|
61
口口②口 |①---|
口口①口 |----|
口口口口 |②---|
口口口口 |----|
62
①口口① |----|
口口口口 |①---|
口口口口 |----|
口口口口 |----|

不確定度: 0

最終更新:2016年08月08日 04:05