ほっしーの!
fourfolium

ADVANCED

Level: 6
BPM: 190
Notes: 313

1
口口口口 |----|
口口口口 |----|
口口口口 |----|
①口口口 |--①-|
2
口口口口 |----|
口②口① |--①-|
口③口口 |--②-|
口口口口 |③---|
3
②口口口 |①---|
口口③口 |--②-|
口口④① |--③-|
口口口口 |④---|
4
口口口② |①---|
口③口口 |--②-|
①④口口 |--③-|
口口口口 |④---|
5
③③③③ |①---|
口口口口 |②---|
①口口① |③---|
口②②口 |----|
6
口口口口 |①---|
①口口② |----|
口口口口 |②---|
口口口口 |----|
7
口口口口 |①---|
口①口口 |②---|
口口②口 |③---|
口口口③ |----|
8
口口口① |①---|
②口口口 |②---|
口口口③ |③---|
④口口口 |④---|
9
口④口口 |①---|
口口③口 |②---|
口②口口 |③---|
口口①口 |④---|
10
口口口口 |①---|
②口口① |----|
口口口口 |②---|
口口口口 |----|
11
口口口口 |①---|
口口①口 |②---|
口②口口 |③---|
③口口口 |----|
12
口口口口 |①---|
口口口口 |②---|
口口③④ |③---|
口口②① |④---|
13
④③口口 |①---|
①②口口 |②---|
口口口口 |③---|
口口口口 |④---|
14
口④②口 |①---|
口口口口 |②---|
口①③口 |③---|
口口口口 |④---|
15
口口口口 |①---|
口口口① |②---|
②口口口 |③---|
口口③口 |----|
16
①口口③ |①---|
口②④口 |②---|
口口口口 |③---|
口口口口 |④---|
17
①①③③ |①---|
口口口口 |②---|
口口口口 |③---|
口④②口 |④---|
18
口口口口 |①---|
①口口② |②---|
口③④口 |③---|
口口口口 |④---|
19
①口口口 |①---|
口口口② |②---|
口③口口 |③---|
口口口口 |----|
20
③口口③ |①---|
④①口② |②---|
②口①口 |③---|
口口口口 |--④-|
21
口口口口 |----|
③③③口 |①---|
口口②② |②---|
口①口口 |③---|
22
口④②口 |①---|
口口口口 |②---|
口①③口 |③---|
口口口口 |④---|
23
口口口口 |①---|
口口口① |②---|
②口口口 |③---|
口口③口 |----|
24
①口口③ |①---|
口②④口 |②---|
口口口口 |③---|
口口口口 |④---|
25
①①③③ |①---|
口口口口 |②---|
口口口口 |③---|
口④②口 |④---|
26
口口口口 |①---|
②口口① |②---|
口口口口 |③---|
口④③口 |④---|
27
口口口① |①---|
②口口口 |②---|
口口③口 |③---|
口口口口 |----|
28
③口口③ |①---|
②口①④ |②---|
口①口② |③---|
口口口口 |--④-|
29
③口口③ |----|
②②口口 |①---|
口口口口 |②---|
口口①口 |③---|
30
口口口口 |①---|
④③②口 |----|
口①①口 |--②-|
口口口口 |③-④-|
31
口口口口 |----|
口口口① |----|
口口口口 |----|
口口口口 |①---|
32
口口①口 |①---|
②口口口 |----|
口③口口 |②---|
口口口口 |③---|
33
口口口口 |①---|
口口口② |----|
口口口口 |②---|
口口①口 |----|
34
口⑤口口 |①---|
①④③口 |②-③-|
口口②口 |--④-|
口口口口 |⑤---|
35
口口口① |①---|
口口口② |②---|
口口口③ |③---|
口口口④ |④---|
36
⑦口口⑦ |①-②-|
⑧⑤⑥⑧ |③-④-|
口③④口 |⑤-⑥-|
口①②口 |⑦-⑧-|
37
口口口口 |----|
口口口口 |----|
口口口口 |----|
口口口口 |----|
38
口⑧口① |①-②-|
②口⑦口 |③-④-|
口⑥口③ |⑤-⑥-|
④口⑤口 |⑦-⑧-|
39
③口口③ |①---|
口①口① |②---|
口口②口 |③---|
口⑤④口 |④-⑤-|
40
④口⑤口 |①-②-|
口⑥口③ |③-④-|
②口⑦口 |⑤-⑥-|
口⑧口① |⑦-⑧-|
41
③④口③ |①---|
①⑤①口 |②---|
口②口口 |③---|
口口口口 |④-⑤-|
42
口口口口 |①---|
口口口② |--②-|
口口①口
口口口口

口口口③
口口④口
口口⑤口 |③---|
口口口口 |④-⑤-|
43
口口口口 |①---|
③口口④ |--②-|
②口口口 |③---|
口①口口 |--④-|
44
⑤②②⑤ |①---|
③口口口 |②---|
口④口口 |③-④-|
口口口① |--⑤-|
45
口口口口 |--①-|
④口④① |②---|
口④②④ |③---|
口③③口 |④---|
46
①口⑧口 |①-②-|
口⑦口② |③-④-|
③口⑥口 |⑤-⑥-|
口⑤口④ |⑦-⑧-|
47
③口口③ |①---|
①口①口 |②---|
口②口口 |③---|
口⑤④口 |④-⑤-|
48
④口⑤口 |①-②-|
口⑥口③ |③-④-|
②口⑦口 |⑤-⑥-|
口⑧口① |⑦-⑧-|
49
③④口③ |①---|
①⑤①口 |②---|
口②口口 |③---|
口口口口 |④-⑤-|
50
口口口口 |①---|
口口口② |--②-|
口口①口
口口口口

口口口③
口口④口
口口⑤口 |③---|
口口口口 |④-⑤-|
51
口口口口 |①---|
③口口④ |--②-|
②口口口 |③---|
口①口⑤ |④-⑤-|
52
⑤⑤②② |①---|
口③④口 |②---|
口④③口 |③-④-|
①①口口 |--⑤-|
53
口口口① |--①-|
口口口② |②-③-|
口⑤⑤③ |④---|
口口口④ |⑤---|
54
①①①① |①---|
口口口口 |----|
口口口口
口口口口

口口口③
口②口口
口口口口 |②---|
口口口口 |--③-|
55
口口口口 |①-②-|
④口①口 |③---|
口②口口 |④---|
③口口口 |----|
56
口①口⑧ |①-②-|
⑦口②口 |③-④-|
口③口⑥ |⑤-⑥-|
⑤口④口 |⑦-⑧-|
57
⑤①口口 |①-②-|
口⑥②口 |③-④-|
口③⑦口 |⑤-⑥-|
口口④口 |⑦---|
58
口口①③ |①---|
口②口口 |----|
口口口口 |②---|
口口口口 |--③-|
59
口口口口 |①-②-|
④口①口 |③---|
口②口口 |④---|
③口口口 |----|
60
口①②口 |①-②-|
口③④口 |③-④-|
口⑤⑥口 |⑤-⑥-|
口⑦⑧口 |⑦-⑧-|
61
⑦口口⑧ |①-②-|
⑤口口⑥ |③-④-|
③口口④ |⑤-⑥-|
①口口② |⑦-⑧-|
62
口口口口 |----|
口①①口 |①---|
口①①口 |----|
口口口口 |----|
63
口口口口 |----|
口口口口 |----|
口口口口 |----|
口口口口 |----|
64
口口口口 |①-②-|
口口口口 |----|
口①②口 |----|
口口口口 |----|

不確定度: 0

最終更新:2016年08月08日 04:05