ほっしーの!
fourfolium

EXTREME

Level: 8
BPM: 190
Notes: 443

1
口①口口 |----|
口②口口 |----|
口口口口 |----|
口口口口 |--①②|
2
④口⑥口 |①---|
口口⑦③ |②-③-|
⑤①口口 |--④-|
口口口② |⑤-⑥⑦|
3
口口口④ |①---|
③⑥口口 |②-③-|
口⑦①⑤ |--④-|
②口口口 |⑤-⑥⑦|
4
口口③口 |①---|
④口口口 |②-③-|
口⑥②口 |--④-|
⑤①口口 |⑤-⑥-|
5
③口口③ |①---|
口口①① |②---|
口口口口 |③---|
口②②口 |----|
6
口口口口 |①---|
①口口口 |----|
口口口口 |②---|
口口②③ |--③-|
7
③口口口 |①-②-|
口口口② |③---|
①④口口 |④---|
口口口口 |----|
8
⑧口⑩① |①-②③|
②⑨口⑤ |④-⑤⑥|
③口口⑥ |⑦-⑧-|
④口口⑦ |⑨-⑩-|
9
口⑧口口 |①-②③|
②口⑦口 |④-⑤-|
③口①⑥ |⑥-⑦-|
④口⑤口 |⑧---|
10
口口口口 |①---|
口口口① |----|
口口口口 |②---|
③②口口 |--③-|
11
口口口③ |①-②-|
②④口口 |③---|
口口口① |④---|
口⑤口口 |⑤---|
12
口④口⑤ |①-②-|
⑥口③口 |③-④-|
口②口⑦ |⑤-⑥-|
⑧口①口 |⑦-⑧-|
13
口④口⑤ |①-②-|
⑥口③口 |③-④-|
口②⑦口 |⑤-⑥-|
口⑧①口 |⑦-⑧-|
14
③⑥②⑦ |①--②|
口口口口 |③-④-|
⑤④⑧① |⑤--⑥|
口口口口 |⑦-⑧-|
15
③口②口 |①--②|
口⑦口口 |③-④-|
⑤④口① |⑤-⑥-|
口⑥口口 |--⑦-|
16
②口口① |①-②-|
口⑧⑦口 |③-④-|
口⑥⑤口 |⑤-⑥-|
④口口③ |⑦-⑧-|
17
③口口① |①---|
口口口口 |②---|
①口口③ |③---|
④④②② |④---|
18
⑤口④② |①---|
口口口口 |②---|
口⑥①③ |③--④|
口口口口 |⑤-⑥-|
19
口②口③ |①--②|
口口口口 |③-④-|
①⑥④⑤ |⑤---|
口⑦口口 |⑥-⑦-|
20
口口口③ |①---|
②④口① |②---|
①⑤口口 |③---|
③口口② |④-⑤-|
21
口③口③ |----|
②口③② |①---|
口口口口 |②---|
口口①口 |③---|
22
③⑥②⑦ |①--②|
口口口口 |③-④-|
⑤④⑧① |⑤--⑥|
口口口口 |⑦-⑧-|
23
③口②口 |①--②|
口⑦口口 |③-④-|
⑤④口① |⑤-⑥-|
口⑥口口 |--⑦-|
24
③⑥②口 |①--②|
口口口⑤ |③-④-|
口④⑦① |⑤-⑥-|
口⑧口口 |⑦-⑧-|
25
③口口① |①---|
口口口口 |②---|
①口口③ |③---|
④④②② |④---|
26
⑤口④② |①---|
口口口口 |②---|
口⑥①③ |③--④|
口口口口 |⑤-⑥-|
27
口②口③ |①--②|
口口口口 |③-④-|
①⑥④⑤ |⑤---|
口⑦口口 |⑥-⑦-|
28
口⑤⑤③ |①---|
②口口① |②---|
①④口口 |③---|
③口口② |④-⑤-|
29
口口口口 |----|
口③①口 |①---|
口口③口 |②---|
②②口口 |③---|
30
①①口② |①---|
①口③口 |----|
口口口④ |--②-|
口口口口 |③-④-|
31
口口口口 |----|
口口口口 |----|
口口口口 |----|
口①口口 |①---|
32
口口②口 |①---|
①③口口 |----|
口口口口 |②---|
口口口口 |③---|
33
口口口口 |①---|
口口口口 |----|
①口口口 |②---|
口口口② |----|
34
⑤②口③ |①--②|
⑥口口口 |③-④-|
①口④口 |--⑤-|
口口口口 |⑥---|
35
口口口④ |①---|
口口③口 |②---|
口②口口 |③---|
①口口口 |④---|
36
⑧口口⑦ |①-②-|
①口口② |③-④-|
⑦③④⑧ |⑤-⑥-|
口⑤⑥口 |⑦-⑧-|
37
口口口口 |----|
③口②口 |----|
口口口口 |①--②|
口④口① |③-④-|
38
③⑤③⑤ |①-②-|
⑦①⑦① |③-④-|
口④⑥口 |⑤-⑥-|
口⑧②口 |⑦-⑧-|
39
口口口口 |①---|
口①口① |②---|
口口口口
②口②口

③口③口
口⑤口口
③④③口 |③---|
口口口口 |④-⑤-|
40
⑤③⑤③ |①-②-|
①⑦①⑦ |③-④-|
口⑥④口 |⑤-⑥-|
口②⑧口 |⑦-⑧-|
41
口③④③ |①---|
①⑤①口 |②---|
口③口③ |③---|
口②口② |④-⑤-|
42
①④口口 |①---|
口口⑤② |--②-|
口口口口 |③---|
口口③口 |④-⑤-|
43
②口口① |①---|
口口④口 |--②-|
口③口口 |③---|
口口口口 |--④-|
44
②②③③ |①---|
口口口③ |②---|
④口⑤⑤ |③-④-|
④④①口 |--⑤-|
45
②③口③ |--①-|
③①③口 |②---|
④口④口 |③---|
口④口④ |④---|
46
③⑤③⑤ |①-②-|
⑦①⑦① |③-④-|
口④⑥口 |⑤-⑥-|
口⑧②口 |⑦-⑧-|
47
口口口口 |①---|
口①口① |②---|
口口口口
②口②口

③口③口
口⑤口口
③④③口 |③---|
口口口口 |④-⑤-|
48
⑤③⑤③ |①-②-|
①⑦①⑦ |③-④-|
口⑥④口 |⑤-⑥-|
口②⑧口 |⑦-⑧-|
49
口③④③ |①---|
①⑤①口 |②---|
口③口③ |③---|
口②口② |④-⑤-|
50
①④口口 |①---|
口口⑤② |--②-|
口口口口 |③---|
口口③口 |④-⑤-|
51
②⑤口① |①---|
口④口口 |--②-|
口③口口 |③---|
口口口口 |④-⑤-|
52
口口①① |①---|
口口口① |②---|
②口口口
②②口口

⑤口口⑤
口④③口
口③④口 |③-④-|
口口口口 |--⑤-|
53
口③①口 |--①-|
③口口① |②-③-|
④口口② |④---|
⑤④②⑤ |⑤---|
54
①口口① |①---|
口①①口 |----|
口口口口 |②---|
③口②口 |--③-|
55
口口口③ |①-②-|
②口口口 |③---|
口④口① |④---|
口口口口 |----|
56
①⑩口⑧ |①-②③|
⑤口⑨② |④-⑤⑥|
⑥口口③ |⑦-⑧-|
⑦口口④ |⑨-⑩-|
57
口口⑧口 |①-②③|
口⑦口② |④-⑤-|
⑥①口③ |⑥-⑦-|
口⑤口④ |⑧---|
58
口口口口 |①---|
①口口口 |----|
口口口口 |②---|
③口②口 |--③-|
59
口口口③ |①-②-|
②口口口 |③---|
口口④① |④---|
口⑤口口 |⑤---|
60
口④口⑤ |①-②-|
⑥口③口 |③-④-|
口②口⑦ |⑤-⑥-|
⑧口①口 |⑦-⑧-|
61
⑥④口⑤ |①-②-|
口口③口 |③-④-|
口②口口 |⑤-⑥-|
⑧口①⑦ |⑦-⑧-|
62
口口口口 |----|
①①①① |①---|
①口口① |----|
口口口口 |----|
63
口口口口 |----|
口口口口 |----|
口口口口 |----|
口口口口 |----|
64
口口口口 |①②③-|
①口口① |----|
②口口② |----|
③口口③ |----|

不確定度: 0

最終更新:2016年08月08日 04:04