Shake!
fourfolium

BASIC

Level: 4
BPM: 170
Notes: 241

1
口口口口 |----|
口口口口 |----|
口口口口 |----|
口口口口 |----|
2
口口口口 |----|
口口口口 |----|
口口口口 |----|
口口口口 |----|
3
口口口口 |①---|
口口口口 |----|
口口②① |②---|
口口口口 |----|
4
口口口口 |①---|
口口口口 |----|
②①口口 |②---|
口口口口 |----|
5
口口口口 |①---|
口①②口 |----|
口口口口 |②---|
口口口口 |----|
6
口口口口 |①---|
口口口口 |----|
口①②口 |②---|
口口口口 |----|
7
口口口口 |①---|
口口②① |----|
口口口口 |②---|
口口口口 |----|
8
口口口口 |①---|
②①口口 |----|
口口口口 |②---|
口口口口 |----|
9
口①①口 |①---|
口②②口 |----|
口口口口 |②---|
口口口口 |----|
10
口口口口 |①---|
口口口口 |----|
口①①口 |②---|
口②②口 |----|
11
口口口口 |①---|
口口口口 |----|
①②口口 |②---|
口口口口 |----|
12
口口口口 |①---|
口口口口 |----|
口口①② |②---|
口口口口 |----|
13
口口口口 |①---|
口口②① |----|
口口口口 |②---|
口口口口 |----|
14
口口口口 |①---|
②①口口 |----|
口口口口 |②---|
口口口口 |----|
15
口口③③ |①---|
口口②② |--②-|
口口①① |----|
口口口口 |③---|
16
口口口口 |----|
口口口口 |----|
口口口口 |----|
口口口口 |----|
17
③③口口 |①---|
②②口口 |--②-|
①①口口 |----|
口口口口 |③---|
18
口口口口 |----|
口口②口 |----|
口①口口 |①---|
口口口口 |②---|
19
口①②口 |①---|
口口口口 |----|
口口口口 |②---|
口口口口 |----|
20
口③③① |①---|
口②②口 |----|
口口口口 |②---|
口口口口 |③---|
21
①②口口 |①---|
口口口口 |----|
口口口口 |②---|
口口口口 |----|
22
口口口口 |①---|
口①①口 |----|
口口口口 |----|
口口口口 |----|
23
口口口口 |①---|
口口口口 |----|
口口②① |②---|
口口口口 |----|
24
口口口口 |①---|
口口口口 |----|
②①口口 |②---|
口口口口 |----|
25
口口口口 |①---|
口口口口 |----|
②口口口 |②---|
口①①口 |----|
26
口口口口 |①---|
口口口口 |----|
口①②口 |②---|
口口口口 |----|
27
口口口口 |①---|
口①①口 |----|
口口口② |②---|
口口口口 |----|
28
口口口口 |①---|
口口口口 |----|
口②①口 |②---|
口口口口 |----|
29
口口口口 |①---|
口口③③ |--②-|
口口②② |----|
口口①① |③---|
30
口口①① |--①-|
口②②口 |----|
口口口口 |②---|
口口口口 |----|
31
①②口口 |①---|
口口口口 |----|
口口口口 |②---|
口口口口 |----|
32
口口①② |①---|
口口口口 |----|
口口口口 |②---|
口口口口 |----|
33
口口口口 |①---|
口①①② |----|
口口口口 |②---|
口口口口 |----|
34
口口口口 |①---|
口②①口 |----|
口口口口 |②---|
口口口口 |----|
35
口口口口 |①---|
口口口口 |----|
②①①口 |②---|
口口口口 |----|
36
口口口口 |①---|
口口口口 |----|
口①②口 |②---|
口口口口 |----|
37
口口口口 |①---|
③③口口 |--②-|
②②口口 |----|
①①口口 |③---|
38
口口口口 |----|
口口口口 |----|
口口口口 |----|
口口口口 |----|
39
口口口口 |①---|
口口口口 |----|
口①②口 |②---|
口口口口 |----|
40
口口口口 |①---|
口口口口 |----|
口口口口 |②---|
口①②口 |----|
41
口口口口 |①---|
④口②口 |②---|
口③口① |③---|
口口口口 |④---|
42
口①①口 |①---|
口②②口 |----|
口口口口 |----|
口口口口 |②---|
43
口口口口 |①---|
口口口口 |----|
②②①① |②---|
口口口口 |----|
44
口口口口 |①---|
①①②② |----|
口口口口 |②---|
口口口口 |----|
45
口口口口 |①---|
口口口口 |----|
口①②口 |②---|
口口口口 |----|
46
口口口口 |①---|
口①②口 |----|
口口口口 |②---|
口口口口 |----|
47
口①③口 |①---|
口②④口 |②---|
口口口口 |③---|
口口口口 |④---|
48
口口口口 |①---|
口①③口 |②---|
口②④口 |③---|
口口口口 |④---|
49
口口口口 |①---|
口口口口 |②---|
①②③④ |③---|
口口口口 |④---|
50
口口口口 |----|
口③③口 |①---|
口②②口 |②---|
口①①口 |③---|
51
口①①② |①---|
口口口③ |②---|
口口口④ |③---|
口口口口 |④---|
52
口口①口 |①---|
口口②口 |②---|
口口③口 |③---|
口④④口 |④---|
53
口口口口 |----|
口口口口 |①---|
口①②③ |②---|
口口口口 |③---|
54
口口口口 |①---|
口①①口 |②---|
口②②口 |③---|
口③③口 |----|
55
口口口口 |①---|
口口口口 |②---|
④③②① |③---|
口口口口 |④---|
56
口口口口 |①---|
①②③④ |②---|
口口口口 |③---|
口口口口 |④---|
57
口口口口 |①---|
口口口口 |②---|
②①①② |③---|
④③③④ |④---|
58
口口口口 |①---|
口口口口 |②---|
口③口① |③---|
④口②口 |④---|
59
②口口口 |①---|
③①①口 |②---|
④口口口 |③---|
口口口口 |④---|
60
口①口口 |①---|
口②口口 |②---|
口③口口 |③---|
口④④口 |④---|
61
口口口口 |----|
口口口口 |①---|
③②①口 |②---|
口口口口 |③---|
62
口④④口 |①---|
口③③口 |②---|
口②②口 |③---|
口①①口 |④---|
63
口口口口 |①---|
④③②① |②---|
口口口口 |③---|
口口口口 |④---|
64
口口口口 |①---|
口口口口 |②---|
①②③④ |③---|
口口口口 |④---|
65
口口口口 |①---|
②①①② |②---|
④③③④ |③---|
口口口口 |④---|
66
口④④口 |①---|
口③③口 |②---|
口②②口 |③---|
口①①口 |④---|
67
口口口① |①---|
口口口② |②---|
口口口③ |③---|
口口口④ |④---|
68
口④④口 |①---|
口③③口 |②---|
口口②口 |③---|
口口①口 |④---|
69
①口口口 |①---|
②口口口 |②---|
③口口口 |③---|
④口口口 |④---|
70
口口口口 |①---|
口①①口 |----|
口①①口 |----|
口口口口 |----|

不確定度: 0

最終更新:2016年08月08日 04:04