Shake!
fourfolium

ADVANCED

Level: 7
BPM: 170
Notes: 461

1
口口口口 |----|
口口口口 |----|
口口口口 |----|
口口口口 |----|
2
口口口口 |----|
口口口口 |----|
口口③口 |--①-|
口②①口 |②-③-|
3
⑤口③口 |①---|
②口口① |②---|
口口④口 |③--④|
口口口口 |--⑤-|
4
口③④① |--①-|
②⑤口口 |--②-|
口口口口 |--③-|
口口口口 |④-⑤-|
5
口⑥口④ |--①-|
口口口口 |②-③-|
口⑤③口 |④--⑤|
口②①口 |--⑥-|
6
口口口口 |----|
口口⑤口 |--①-|
口④③口 |②-③-|
口②①口 |④-⑤-|
7
②⑤③① |①---|
口口口口 |②---|
口④口口 |③--④|
口口口口 |--⑤-|
8
②④③① |--①-|
口口⑤口 |--②-|
口口口口 |--③-|
口口口口 |④-⑤-|
9
口口口口 |①---|
口口口口 |--②-|
③①①③ |----|
口②②口 |③---|
10
口口口口 |--①-|
②口口② |----|
口口⑤口 |②-③-|
①④③① |④-⑤-|
11
②⑤③① |①---|
口口口口 |②---|
口④口口 |③--④|
口口口口 |--⑤-|
12
②④③① |--①-|
口口⑤口 |--②-|
口口口口 |--③-|
口口口口 |④-⑤-|
13
口⑥口④ |--①-|
口口口口 |②-③-|
口⑤③口 |④--⑤|
口②①口 |--⑥-|
14
④口口④ |--①-|
③②①③ |②---|
口口口口 |③---|
口口口口 |④---|
15
口②①口 |①---|
口①②口 |--②-|
③口口③ |----|
口口口口 |③---|
16
口口口口 |----|
口口口口 |----|
口口口口 |----|
口口口口 |----|
17
③口口③ |①---|
口②①口 |--②-|
口①②口 |----|
口口口口 |③---|
18
口口口口 |----|
②口口② |----|
口口口口 |①---|
口①①口 |②---|
19
口口①口 |①---|
口②口⑤ |②---|
口口③口 |③---|
口④口口 |④-⑤-|
20
③口口④ |--①-|
③口口④ |②---|
口①②口 |③---|
口口口口 |④---|
21
口口①口 |①---|
口②口口 |②---|
口口口口
口口口口

④④⑤⑤
口口口口
口口③口 |③---|
口口口口 |④-⑤-|
22
口口口① |----|
口②口口 |----|
口口口口 |--①-|
口口口口 |--②-|
23
口⑥⑥口 |①---|
口口①口 |--②-|
②口口⑤ |③-④-|
口③④口 |⑤-⑥-|
24
口口口口 |--①-|
口①①口 |--②-|
③②②④ |--③-|
口口口口 |④---|
25
①口口① |①---|
口口口口 |--②-|
口口口口
②口口口

⑥口口⑥
口口口口
口③④口 |③-④-|
口口口⑤ |⑤-⑥-|
26
口口口口 |--①-|
①口口① |--②-|
②口口② |--③-|
口③④口 |④---|
27
口⑥⑥口 |①---|
①口口① |--②-|
②口口⑤ |③-④-|
口③④口 |⑤-⑥-|
28
口④⑤口 |--①-|
③①①口 |--②-|
口②②口 |--③-|
口口口口 |④-⑤-|
29
口口口口 |①---|
口口口① |②-③-|
③②②③
口口口口

口口口口
⑤④④⑤
口口口口 |--④-|
口口口口 |⑤---|
30
②①①② |①-②-|
口③③口 |----|
口③③口 |③---|
口口口口 |----|
31
口⑥⑥口 |①---|
①口口① |--②-|
②口口⑤ |③-④-|
口③④口 |⑤-⑥-|
32
口口口口 |--①-|
口①①口 |--②-|
③②②④ |--③-|
口口口口 |④---|
33
①口口① |①---|
口③④口 |--②-|
②口口⑤ |③-④-|
口⑥⑥口 |⑤-⑥-|
34
口口口口 |--①-|
③②②④ |--②-|
口①①口 |--③-|
口口口口 |④---|
35
口⑥⑥口 |①---|
口口口口 |--②-|
②①①⑤ |③-④-|
口③④口 |⑤-⑥-|
36
口口口口 |--①-|
口①①口 |--②-|
③②②④ |--③-|
⑤口口口 |④-⑤-|
37
口口口口 |①---|
③②②③ |②-③-|
⑤④④⑤ |--④-|
口口口① |⑤---|
38
口口口口 |----|
口口口口 |----|
口口口口 |----|
口口口口 |----|
39
口口口口 |①---|
口口②② |----|
口①口口 |②---|
口口口口 |----|
40
口口口口 |①---|
口口口口 |----|
口口②② |②---|
口①口口 |----|
41
口口①① |①---|
②②口口 |②---|
口口③③ |③---|
④④口口 |④---|
42
口口口口 |①---|
口口口口 |----|
口口口口
口口①①

口口口口
口口口口
口口口口 |----|
口②②口 |②---|
43
口口⑦④ |①--②|
口③②① |--③-|
⑤⑤⑥⑥ |④-⑤-|
口口口口 |⑥-⑦-|
44
④⑦口口 |①--②|
①②③口 |--③-|
⑥⑥⑤⑤ |④-⑤-|
口口口口 |⑥-⑦-|
45
口口口① |①---|
③口②口 |②-③-|
口口口口
口口口口

口口口⑤
口口口口
口④口口 |--④-|
口口口口 |--⑤-|
46
口①②口 |--①-|
口口口口 |②---|
③口口③ |③---|
④口口④ |④---|
47
①①①① |①---|
②②口口 |②---|
口口③③ |③---|
口④⑤口 |④-⑤-|
48
③口口④ |--①-|
③口口④ |②---|
口①②口 |③---|
口口口口 |④---|
49
口口口口 |①---|
④④⑤⑤ |②---|
口口②② |③---|
①①③③ |④-⑤-|
50
口⑥口口 |--①-|
⑤口口⑦ |②-③-|
口②④口 |④-⑤-|
①口口③ |⑥-⑦-|
51
③口①④ |①---|
⑤③④⑤ |②---|
口②②口 |③--④|
口口口口 |--⑤-|
52
③口口③ |--①-|
④口口④ |--②-|
口②②口 |--③-|
①口口① |④---|
53
④口口④ |--①-|
口⑥⑥口 |②-③-|
⑤③口⑤ |④--⑤|
口①②口 |--⑥-|
54
口口口口 |--①-|
口口口口 |②-③-|
口③④口 |④---|
口①②口 |----|
55
③①①④ |①---|
口③④口 |②---|
口②②口 |③--④|
口⑤⑤口 |--⑤-|
56
口①①口 |--①-|
口口口口 |--②-|
②③③② |----|
口口口口 |③---|
57
②②④④ |①---|
②②④④ |②---|
⑤⑤口口 |③---|
①①③③ |④-⑤-|
58
④③③⑤ |--①-|
④口口⑤ |②---|
口口①口 |③-④-|
口②口口 |⑤---|
59
③⑤⑤④ |①---|
口①①口 |②---|
口③④口 |③--④|
口②②口 |--⑤-|
60
口口口口 |--①-|
口①①口 |--②-|
③③④④ |--③-|
口②②口 |④---|
61
④口口④ |--①-|
口⑥⑥口 |②-③-|
⑤③口⑤ |④--⑤|
口①②口 |--⑥-|
62
口口口口 |--①-|
口口口口 |②-③-|
口③④口 |④---|
口①②口 |----|
63
口①①口 |①---|
口②②口 |②---|
口口口口
口口口口

③⑤⑤④
口口口口
口③④口 |③--④|
口口口口 |--⑤-|
64
口口口口 |--①-|
口①①口 |--②-|
②口口② |----|
③③④④ |③-④-|
65
①①②② |----|
①①②② |①---|
③③口口 |----|
口口口口 |②-③-|
66
⑤口口⑤ |--①-|
③④④③ |②---|
口口口口 |③---|
①①②② |④-⑤-|
67
口口口口 |①---|
口④⑤口 |②---|
③③口口 |③---|
①①②② |④-⑤-|
68
③口口④ |--①-|
③口口④ |②---|
口口口口 |③---|
口①②口 |④---|
69
④口口⑤ |①---|
④③③⑤ |②---|
口口②② |③---|
①①口口 |④-⑤-|
70
口口口口 |----|
口①①口 |----|
口①①口 |①---|
口口口口 |----|

不確定度: 0

最終更新:2016年08月08日 04:04