Shake!
fourfolium

EXTREME

Level: 9
BPM: 170
Notes: 595

1
口口口口 |----|
口口口口 |----|
口口口口 |----|
口口口口 |----|
2
口口口口 |----|
口口③口 |----|
口②口口 |--①-|
口口①口 |②-③-|
3
①口口口 |①---|
口口口口 |②---|
口口口口
口②口口

⑤口⑤③
口口口口
口口口④ |③--④|
口口口口 |--⑤-|
4
口口口口 |--①-|
口①⑤① |--②-|
②④②口 |--③-|
口口③口 |④-⑤-|
5
口口口④ |--①-|
⑤③口口 |②-③-|
口口②⑥ |④--⑤|
口①口口 |--⑥-|
6
口口口口 |----|
口⑤④口 |--①-|
口③②口 |②-③-|
口口口① |④-⑤-|
7
①口口口 |①---|
口口口口 |②---|
口口口口
口②口口

⑤口⑤③
口口口口
口口口④ |③--④|
口口口口 |--⑤-|
8
口口口③ |--①-|
口①④① |--②-|
②⑤②口 |--③-|
口口口口 |④-⑤-|
9
②⑥口④ |①-②-|
口口口口 |--③-|
口口口口 |④---|
①⑤口③ |⑤-⑥-|
10
口口②口 |--①-|
③⑥口③ |②---|
口口⑤口 |③-④-|
口④①口 |⑤-⑥-|
11
①口口① |①---|
口口口口 |②---|
②口口②
口口口口

⑤④④口
口口⑤口
口口口口 |③--④|
口③③口 |--⑤-|
12
口口口口 |--①-|
口⑤口① |--②-|
②①④口 |--③-|
口③②口 |④-⑤-|
13
④⑥⑥④ |--①-|
口口③口 |②-③-|
⑤②口⑤ |④--⑤|
口口①口 |--⑥-|
14
口口口口 |--①-|
口口②口 |②---|
口①口口
口口口口

口口口口
口④口④
③⑤③⑤ |③---|
口口口口 |④-⑤-|
15
口①②口 |①---|
③口口③ |--②-|
③口口③ |----|
口②①口 |③---|
16
口口口⑤ |①-②-|
⑥⑦⑧口 |③-④-|
口④③口 |⑤-⑥⑦|
口②①口 |⑧---|
17
口口口口 |①---|
②口口① |--②-|
①口口②
口口口口

口口③口
口口口③
③口口口 |----|
口③口口 |③---|
18
⑥口口⑥ |①-②-|
口④③口 |③-④-|
口②①口 |⑤---|
口⑤⑤口 |⑥---|
19
口口⑤口 |①---|
口③口④ |②---|
口①口② |③---|
口口口口 |④-⑤-|
20
③口口④ |--①-|
口口①口 |②---|
口②口口 |③---|
口③④口 |④---|
21
口口口口 |①---|
口口口口 |②---|
口①②口
①口口②

口⑤口⑤
口③③口
口口口口 |③---|
④口④口 |④-⑤-|
22
口口口口 |----|
口口口口 |----|
口口①① |--①-|
②口口口 |--②-|
23
口⑥口⑥ |①---|
⑤口①口 |--②-|
口④③口 |③-④-|
口口口② |⑤-⑥-|
24
口口③口 |--①-|
口①口① |--②-|
②④②口 |--③-|
口口口口 |④---|
25
口口口口 |①---|
口①口① |--②-|
口口口口
②口①口

口口口口
⑥口⑥⑤
口③④口 |③-④-|
口口口口 |⑤-⑥-|
26
口①③① |--①-|
口口口口 |--②-|
②④②口 |--③-|
口口口口 |④---|
27
口口口口 |①---|
②①口① |--②-|
口口口口
口口①口

⑥口口口
口口口⑤
口③④口 |③-④-|
口口⑥口 |⑤-⑥-|
28
口②②① |--①-|
口口口口 |--②-|
口口口口
口①口口

⑤口口⑤
④口口④
③口口③ |--③-|
口口口口 |④-⑤-|
29
口⑤⑤口 |①---|
口①①④ |②-③-|
口③③口 |--④-|
②口口口 |⑤---|
30
口③③口 |①-②-|
③①①③ |----|
口口口口 |③---|
②口口② |----|
31
①口口① |①---|
口①①口 |--②-|
口口口②
口口口口

口⑥③⑥
口口口口
口⑤口口 |③-④-|
④口口口 |⑤-⑥-|
32
口口③口 |--①-|
口①口① |--②-|
②④②口 |--③-|
口口口口 |④---|
33
⑥③⑥口 |①---|
①口①口 |--②-|
②⑥⑤⑥ |③-④-|
口①口④ |⑤-⑥-|
34
③口口口 |--①-|
②①②① |--②-|
口口口④ |--③-|
①②①② |④---|
35
口①口① |①---|
口口口口 |--②-|
口口①口
②口口口

口⑥口⑥
口③口口
口⑥⑤⑥ |③-④-|
口口口④ |⑤-⑥-|
36
口口口口 |--①-|
①②①② |--②-|
口口口口
①②①②

口口口口
口口口口
口④③口 |--③-|
口口⑤口 |④-⑤-|
37
口口①① |①---|
口③③口 |②-③-|
②口口口
口口口口

口⑤⑤口
口口口口
口口口④ |--④-|
口口口口 |⑤---|
38
口口口⑤ |①-②-|
⑥⑦⑧口 |③-④-|
口④③口 |⑤-⑥⑦|
口②①口 |⑧---|
39
口②口② |①---|
口口②口 |----|
口口口口 |②---|
①口口口 |----|
40
②口②口 |①---|
口②口口 |----|
口口口口 |②---|
口口口① |----|
41
口①口① |①---|
②口②口 |②---|
口③口③ |③---|
口④④口 |④---|
42
口口口口 |①---|
①口口① |----|
口口口口
口口口口

口口口口
口口口②
口口口② |----|
口口口② |②---|
43
⑥④④⑤ |①--②|
①②口⑦ |--③-|
⑥③③⑤ |④-⑤-|
口①②⑦ |⑥-⑦-|
44
⑤④④⑥ |①--②|
⑦①②口 |--③-|
⑤③③⑥ |④-⑤-|
①②口口 |⑥-⑦-|
45
口口口口 |①---|
口③①② |②-③-|
口④⑤口 |--④-|
口口口口 |--⑤-|
46
口口口口 |--①-|
①②口④ |②---|
口口口口 |③---|
口口口③ |④---|
47
①口口② |①---|
③⑤⑤④ |②---|
③口口④ |③---|
口②①口 |④-⑤-|
48
③口①④ |--①-|
口口口口 |②---|
口②口口 |③---|
口③④口 |④---|
49
⑤②②④ |①---|
⑤③③④ |②---|
口口口口 |③---|
①③③① |④-⑤-|
50
⑥⑤⑦口 |--①-|
⑤⑥口⑦ |②-③-|
④③①② |④-⑤-|
③④②① |⑥-⑦-|
51
⑤④口① |①---|
口口①口 |②---|
③②②④ |③--④|
口③口⑤ |--⑤-|
52
口⑦⑦② |①-②-|
④①③⑤ |③-④-|
④③①⑤ |⑤-⑥-|
②⑥⑥口 |⑦---|
53
②口口④ |--①-|
⑥②④⑥ |②-③-|
口口口口 |④--⑤|
①⑤⑤③ |--⑥-|
54
⑧①③⑧ |①-②-|
口⑦⑦口 |③-④-|
⑥②④⑥ |⑤-⑥-|
口⑤⑤口 |⑦-⑧-|
55
口①③口 |①-②-|
口口口口 |③-④-|
口口口口
②口口④

⑨⑨口口
⑤口口⑤
口口⑧口 |⑤-⑥⑦|
口⑦⑥口 |⑧-⑨-|
56
口⑥②② |①-②-|
⑧④④⑦ |③-④-|
⑧口口⑦ |⑤-⑥-|
①口⑤③ |⑦-⑧-|
57
口口口口 |①---|
口②②口 |②---|
口①①口
口②②口

口④④口
⑤口口③
口④④口 |③---|
⑤口口③ |④-⑤-|
58
口③③口 |--①-|
口④⑤口 |②---|
②口口② |③-④-|
④①①⑤ |⑤---|
59
①口口③ |①-②-|
口口口口 |③-④-|
口口口口
口②④口

⑨⑤⑤口
口口⑧口
口⑦⑥口 |⑤-⑥⑦|
口口口口 |⑧-⑨-|
60
口⑦⑦② |①-②-|
⑥④口⑤ |③-④-|
⑥口④⑤ |⑤-⑥-|
①⑦⑦③ |⑦---|
61
②⑧口④ |--①-|
口②④口 |②-③-|
口口⑦口 |④-⑤⑥|
①⑥⑤③ |⑦-⑧-|
62
⑧口②⑧ |①-②-|
④⑦⑦④ |③-④-|
⑥口口⑥ |⑤-⑥-|
①⑤⑤③ |⑦-⑧-|
63
⑦⑥⑤⑦ |①-②-|
③口口③ |③-④-|
⑤①①⑥ |⑤--⑥|
②④④② |--⑦-|
64
口口口口 |--①-|
③①①④ |--②-|
③口口④ |----|
②口口② |③-④-|
65
口③③口 |----|
②①①④ |①---|
口③③口 |②---|
②①①④ |③-④-|
66
③口口③ |--①-|
口④⑤口 |②---|
②口口② |③-④-|
④①①⑤ |⑤---|
67
③⑤⑤口 |①---|
①③口④ |②---|
口①④② |③---|
口口②口 |④-⑤-|
68
③口口④ |--①-|
口口①口 |②---|
口②口口 |③---|
口③④口 |④---|
69
⑤口口④ |①---|
①③③② |②---|
⑤②①④ |③---|
口口口口 |④-⑤-|
70
口口口口 |----|
①口口① |----|
口①①口 |①---|
①口口① |----|

不確定度: 0

最終更新:2016年08月08日 04:03