Now Loading!!!!
fourfolium

BASIC

Level: 3
BPM: 193
Notes: 171

1
口口口口 |----|
口口口口 |----|
口口口口 |----|
口口口口 |----|
2
口口口口 |①---|
①口口① |----|
口口口口 |----|
口口口口 |----|
3
口口口口 |----|
口口口口 |----|
口①①口 |①---|
口口口口 |----|
4
①口口口 |①---|
口口口口 |----|
口口口口 |----|
口口口口 |----|
5
口口口口 |①---|
①口口口 |----|
口口口口 |----|
口口口口 |----|
6
口①口口 |①---|
口口口口 |----|
口口口口 |----|
口口口口 |----|
7
口口口口 |①---|
口①口口 |----|
口口口口 |----|
口口口口 |----|
8
口口①口 |①---|
口口口口 |----|
口口口口 |----|
口口口口 |----|
9
口口口口 |①---|
口口①口 |----|
口口口口 |----|
口口口口 |----|
10
口口口口 |①---|
口③③口 |--②-|
②口口② |----|
口①①口 |③---|
11
①口口① |--①-|
口口口口 |----|
口口口口 |----|
口口口口 |----|
12
口口口口 |①---|
口口口口 |----|
①②口口 |②---|
口口口口 |----|
13
口口口口 |①---|
口口口口 |----|
口口①② |②---|
口口口口 |----|
14
口口口口 |①---|
口口②① |----|
口口口口 |②---|
口口口口 |----|
15
口口口口 |①---|
②①口口 |----|
口口口口 |②---|
口口口口 |----|
16
①②口口 |①---|
口口口口 |----|
口口口口 |②---|
口口口口 |----|
17
口口①② |①---|
口口口口 |----|
口口口口 |②---|
口口口口 |----|
18
口口口口 |①---|
口口②① |----|
口口口口 |②---|
口口口口 |----|
19
口口口口 |①---|
②①口口 |----|
口口口口 |②---|
口口口口 |----|
20
口口②① |①---|
口口口口 |----|
口口口口 |②---|
口口口口 |----|
21
②①口口 |①---|
口口口口 |----|
口口口口 |②---|
口口口口 |----|
22
口口口口 |①---|
①②口口 |----|
口口口口 |②---|
口口口口 |----|
23
口口口口 |①---|
口口①② |----|
口口口口 |②---|
口口口口 |----|
24
口①①口 |①---|
口②②口 |②---|
口口口口 |----|
口口口口 |----|
25
①口口① |①---|
②口口② |②---|
口口口口 |----|
口口口口 |----|
26
口口口口 |①---|
口①①口 |----|
口②②口 |②---|
口口口口 |----|
27
口口口口 |①---|
口口口口 |----|
口口口口 |----|
口①①口 |----|
28
口口口口 |----|
口口口口 |----|
口口口① |①---|
口口口口 |----|
29
口口口口 |①---|
口口口口 |----|
口②①口 |②---|
口口口口 |----|
30
口口口口 |①---|
①②口口 |----|
口口口口 |②---|
口口口口 |----|
31
口口口口 |①---|
口口①口 |----|
口口口口 |----|
口口口口 |----|
32
口口①口 |①---|
口②口口 |----|
口口口口 |②---|
口口口口 |----|
33
口口口口 |①---|
口口口口 |----|
口口①口 |----|
口口口口 |----|
34
口①口口 |①---|
口口②口 |----|
口口口口 |②---|
口口口口 |----|
35
口口口口 |①---|
口口口口 |----|
口①口口 |②---|
口口②口 |----|
36
口口口口 |----|
口口口口 |----|
①口口口 |①---|
口口口口 |----|
37
口口口口 |①---|
口口口口 |----|
口①②口 |②---|
口口口口 |----|
38
口口口口 |①---|
口口②① |----|
口口口口 |②---|
口口口口 |----|
39
口口口口 |①---|
口①口口 |----|
口口口口 |----|
口口口口 |----|
40
①口口口 |①---|
口②口口 |----|
口口口口 |②---|
口口口口 |----|
41
口口口口 |①---|
口口口口 |----|
口口①口 |②---|
口口口② |----|
42
口口口① |①---|
口口②口 |----|
口口口口 |②---|
口口口口 |----|
43
口口口口 |①---|
口口口口 |----|
口①口口 |②---|
②口口口 |----|
44
①口口① |--①-|
②口口② |----|
③口口③ |②---|
口口口口 |--③-|
45
口口①口 |----|
口口口口 |----|
口口口口 |----|
口口口口 |①---|
46
口口口口 |①---|
口①②口 |②---|
口③④口 |③---|
口口口口 |④---|
47
口③口口 |①---|
口口口口 |②---|
口口口口 |----|
口①②口 |③---|
48
口口口口 |①---|
口②①口 |②---|
口④③口 |③---|
口口口口 |④---|
49
口口口口 |①---|
口口口③ |②---|
口口口口 |----|
口②①口 |③---|
50
口口口口 |①---|
①口口口 |②---|
③口口② |③---|
口口口④ |④---|
51
口口口口 |①---|
②口口口 |----|
口口口口 |----|
①口口口 |②---|
52
口口口口 |①---|
口口口① |②---|
②口口③ |③---|
④口口口 |④---|
53
口口口口 |①---|
口口口口 |----|
口②③口 |②---|
口口口① |③---|
54
口口口口 |①---|
口①②口 |②---|
口③④口 |③---|
口口口口 |④---|
55
口③口口 |①---|
口口口口 |②---|
口口口口 |----|
口①②口 |③---|
56
口口口口 |①---|
口②①口 |②---|
口④③口 |③---|
口口口口 |④---|
57
口口口③ |①---|
口口口口 |②---|
口口口口 |----|
口②①口 |③---|
58
③②①口 |①---|
④口口口 |②---|
口口口口 |③---|
口口口口 |④---|
59
口口口口 |①---|
口口口口 |----|
①口③② |②---|
口口口口 |③---|
60
口口口口 |①---|
②③④口 |②---|
口①口口 |③---|
口口口口 |④---|
61
口③②① |①---|
口口口口 |②---|
口口口口 |③---|
口口口口 |----|
62
口口口口 |①---|
①口口口 |----|
②口口口 |②---|
口口口口 |----|
63
口口口口 |①---|
口①口口 |----|
口②口口 |②---|
口口口口 |----|
64
口口口口 |①---|
口口①口 |----|
口口②口 |②---|
口口口口 |----|
65
口口口口 |①---|
口口口① |----|
口口口② |②---|
口口口口 |----|
66
口口口口 |①---|
口口口口 |----|
①②口口 |②---|
口口口口 |----|
67
口口口口 |①---|
口口口口 |----|
口口①② |②---|
口口口口 |----|
68
口口口口 |①---|
口③③口 |--②-|
②口口② |----|
口①①口 |③---|
69
①口口① |--①-|
口口口口 |----|
口口口口 |----|
口口口口 |----|
70
①口口① |①---|
口口口口 |----|
口口口口 |----|
口口口口 |----|
71
口①①口 |----|
口②②口 |----|
口口口口 |①---|
口口口口 |②---|

不確定度: 0

最終更新:2016年08月08日 01:09