Now Loading!!!!
fourfolium

ADVANCED

Level: 6
BPM: 193
Notes: 361

1
口口口口 |----|
口口口口 |----|
口口口口 |----|
口口口口 |----|
2
口口口口 |①---|
口口口口 |②---|
④口口口 |③---|
①②③口 |④---|
3
口③③口 |①---|
口④④口 |②---|
口①②口 |③-④-|
口口口口 |----|
4
口口口⑤ |①---|
③口⑤① |②---|
④口②口 |③-④-|
口口口口 |--⑤-|
5
口③④口 |--①-|
口口口① |--②-|
口口①② |--③-|
口口②口 |④---|
6
⑤口口口 |①---|
①⑤口③ |②---|
口②口④ |③-④-|
口口口口 |--⑤-|
7
口④③口 |--①-|
①口口口 |--②-|
②①口口 |--③-|
口②口口 |④---|
8
口口口口 |①---|
①①②② |----|
口口口口 |②---|
口口口口 |----|
9
口口口口 |①---|
口口口口 |----|
①①②② |②---|
口口口口 |----|
10
①口口① |①---|
②口口② |--②-|
③口口③ |----|
口口口口 |③---|
11
口口口口 |--①-|
口口口口 |----|
口口口口 |----|
①口口① |----|
12
①②口③ |----|
口口口④ |①---|
口口口口 |②---|
口口口口 |③-④-|
13
口口口口 |--①-|
③口口口 |--②-|
④口①口 |----|
口②口口 |③-④-|
14
口口口口 |----|
口③口① |①-②-|
口④口② |----|
口口口口 |③-④-|
15
③口口② |--①-|
④口①口 |--②-|
⑤口口口 |--③-|
口口口口 |④-⑤-|
16
③口②① |----|
④口口口 |①---|
口口口口 |②---|
口口口口 |③-④-|
17
口口口口 |--①-|
口口口③ |--②-|
口①口④ |----|
口口②口 |③-④-|
18
口口口口 |----|
①口③口 |①-②-|
②口④口 |----|
口口口口 |③-④-|
19
②口口③ |--①-|
口①口④ |--②-|
口口口⑤ |--③-|
口口口口 |④-⑤-|
20
①②口③ |----|
口口口④ |①---|
口口口口 |②---|
口口口口 |③-④-|
21
口口口口 |--①-|
③口口口 |--②-|
④口①口 |----|
口②口口 |③-④-|
22
口口口口 |----|
口③口① |①-②-|
口④口② |----|
口口口口 |③-④-|
23
③口口② |--①-|
④口①口 |--②-|
⑤口口口 |--③-|
口口口口 |④-⑤-|
24
口①①口 |①---|
口③③口 |②---|
口口②② |----|
口口口口 |③---|
25
口①①口 |①---|
③口口③ |②---|
②②口口 |----|
口口口口 |③---|
26
②③口④ |①---|
口①①⑤ |②-③-|
口口口口 |----|
口口口口 |④-⑤-|
27
口口口口 |----|
口口口口 |----|
口口口口 |----|
口口口口 |----|
28
②口口口 |①---|
口口口口 |----|
口①①口 |②---|
口口口口 |----|
29
口口口① |①---|
口口②口 |②---|
口③口口 |③---|
④口口口 |④---|
30
④口④口 |①---|
⑤口⑤② |②-③-|
①口口③ |--④-|
口口口口 |--⑤-|
31
口口口① |----|
口口口口 |----|
口口③② |①---|
口口口口 |②-③-|
32
口口口口 |①---|
②口口③ |②---|
口①口口 |----|
口口口口 |③---|
33
①口口口 |----|
口口口口 |----|
②③口口 |①---|
口口口口 |②-③-|
34
口口口口 |①---|
③口口② |②---|
口口①口 |----|
口口口口 |③---|
35
口①①口 |----|
口②②口 |①---|
口口口口 |②---|
口口口口 |----|
36
口口口① |----|
口口口口 |----|
口口口口 |①---|
口口口口 |----|
37
①口口口 |①---|
口②口口 |②---|
口口③口 |③---|
口口口④ |④---|
38
口④口④ |①---|
②⑤口⑤ |②-③-|
③口口① |--④-|
口口口口 |--⑤-|
39
口口口口 |----|
口口口口 |----|
口口口口 |----|
①①口口 |①---|
40
口口口口 |①---|
口口口口 |----|
②②口口 |②---|
口口①① |----|
41
②②口口 |①---|
口口①① |----|
口口口口 |②---|
口口口口 |----|
42
口口口口 |①---|
口口口口 |----|
②②①① |②---|
②②①① |----|
43
②②①① |①---|
②②①① |----|
口口口口 |②---|
口口口口 |----|
44
口口口口 |--①-|
③④②① |②---|
口口口口 |③-④-|
口⑤⑤口 |--⑤-|
45
口⑥⑤口 |--①-|
口口口口 |②-③-|
①②③④ |④---|
口口口口 |⑤-⑥-|
46
①口口口 |①---|
③口口② |②-③-|
⑤口口④ |④-⑤-|
⑦口口⑥ |⑥-⑦-|
47
口⑤⑥口 |①-②-|
口④③口 |③-④-|
口④③口 |----|
口②①口 |⑤-⑥-|
48
口口口① |①---|
②口口③ |②-③-|
④口口⑤ |④-⑤-|
⑥口口⑦ |⑥-⑦-|
49
口口口口 |①-②-|
⑤③④⑤ |③-④-|
口③④口 |----|
口①②口 |⑤---|
50
口口口口 |①---|
口③②口 |②-③-|
①⑤④① |④-⑤-|
口口⑥口 |⑥---|
51
②口口② |①---|
①口口口 |----|
①口口口 |----|
口口口口 |②---|
52
口口口口 |①---|
口②③口 |②-③-|
①④⑤① |④-⑤-|
口⑥口口 |⑥---|
53
口口④口 |①---|
口③口① |②---|
②口口① |③---|
口口口口 |④---|
54
①口口① |①---|
②口口③ |②-③-|
④口口⑤ |④-⑤-|
⑥口口⑦ |⑥-⑦-|
55
口⑥⑤口 |①-②-|
口③④口 |③-④-|
口③④口 |----|
口①②口 |⑤-⑥-|
56
①口口口 |①---|
③口口② |②-③-|
⑤口口④ |④-⑤-|
⑦口口⑥ |⑥-⑦-|
57
⑤口口⑤ |①-②-|
口④③口 |③-④-|
口④③口 |----|
口②①口 |⑤---|
58
口口口口 |①---|
①④④① |②-③-|
口⑤⑤口 |④---|
口③②口 |⑤---|
59
口口口① |①---|
口②口① |----|
口口③口 |②---|
口口口口 |③---|
60
①口口④ |①---|
①口②④ |②---|
口③口口 |③---|
口口口口 |④---|
61
口①①口 |①---|
口③③口 |②---|
②口口② |③---|
口口口口 |----|
62
口口口⑤ |①---|
③口⑤① |②---|
④口②口 |③-④-|
口口口口 |--⑤-|
63
口③④口 |--①-|
口口口① |--②-|
口口①② |--③-|
口口②口 |④---|
64
⑤口口口 |①---|
①⑤口③ |②---|
口②口④ |③-④-|
口口口口 |--⑤-|
65
口④③口 |--①-|
①口口口 |--②-|
②①口口 |--③-|
口②口口 |④---|
66
口口口口 |①---|
口①②口 |----|
口口口口 |②---|
口口口口 |----|
67
口口口口 |①---|
口口口口 |----|
口①②口 |②---|
口口口口 |----|
68
①口口① |①---|
②口口② |--②-|
③口口③ |----|
口口口口 |③---|
69
口口口口 |--①-|
口口口口 |----|
口口口口 |----|
①口口① |----|
70
⑥②⑦① |①-②-|
口④口③ |③-④-|
口口口⑤ |⑤---|
口口口口 |⑥-⑦-|
71
口口口口 |①-②-|
①口②口 |③---|
③口口口
口口口口

⑤⑤口口
⑦⑦口口
口口⑥⑥ |④-⑤-|
口口④④ |⑥-⑦-|

不確定度: 0

最終更新:2016年08月08日 01:09