SAKURAスキップ
fourfolium

BASIC

Level: 3
BPM: 165
Notes: 170

1
口口口口 |----|
口口口口 |----|
口口口口 |----|
口口口口 |----|
2
口口口口 |①---|
口口口口 |----|
①口口口 |----|
口口口口 |----|
3
口口口口 |①---|
口口口口 |----|
口①口口 |----|
口口口口 |----|
4
口口口口 |①---|
口口口口 |----|
口口①口
口口口口

口口口口
口口口口
口口②② |----|
口口口口 |--②-|
5
③③②② |--①-|
口口①① |--②-|
口口口口 |--③-|
口口口口 |----|
6
口口口口 |①---|
口口①口 |----|
口口口口 |----|
口口口口 |----|
7
口口口口 |①---|
口口口口 |----|
口①口口 |----|
口口口口 |----|
8
口口口口 |①---|
口口口口 |----|
口口口口 |----|
口口①口 |----|
9
口口口口 |①---|
口口口② |----|
口口口① |②---|
口口口口 |----|
10
口口②① |①---|
口口口口 |----|
口口口口 |②---|
口口口口 |----|
11
②①口口 |①---|
口口口口 |----|
口口口口 |②---|
口口口口 |----|
12
口①口口 |①---|
口②口口 |②---|
口③口口 |③---|
口④口口 |④---|
13
口口④④ |①---|
口口③口 |②---|
口口②口 |③---|
口口①口 |④---|
14
口口口口 |①---|
①②口口 |----|
口口口口 |②---|
口口口口 |----|
15
口口口口 |①---|
口口①② |----|
口口口口 |②---|
口口口口 |----|
16
口口口口 |①---|
口口口口 |----|
口②①口 |②---|
口口口口 |----|
17
口②②口 |①---|
口①①口 |----|
口口口口 |②---|
口口口口 |----|
18
①口口口 |①---|
口口口口 |----|
口口口口 |----|
口口口口 |----|
19
口口口口 |①---|
①口口口 |----|
口口口口 |----|
口口口口 |----|
20
口口口口 |①---|
口口口口 |----|
①口口口 |----|
口口口口 |----|
21
口口口口 |①---|
口口口口 |----|
口口口口 |----|
①口口口 |----|
22
口口口口 |①---|
口口口口 |----|
口口口口 |----|
口①口口 |----|
23
口口口口 |①---|
口口口口 |----|
口①口口 |----|
口口口口 |----|
24
口口口口 |①---|
口①口口 |----|
口口口口 |----|
口口口口 |----|
25
口①①口 |①---|
口②②口 |----|
口口口口 |②---|
口口口口 |----|
26
口口口口 |①---|
口口②① |----|
口口口口 |②---|
口口口口 |----|
27
口口口口 |①---|
口口口口 |----|
②①口口 |②---|
口口口口 |----|
28
口④口口 |①---|
口③口口 |②---|
口②口口 |③---|
口①口口 |④---|
29
口口①口 |①---|
口口②口 |②---|
口口③口 |③---|
口口④口 |④---|
30
口口口口 |①---|
口口口口 |----|
口口②① |②---|
口口口口 |----|
31
口口口口 |①---|
②①口口 |----|
口口口口 |②---|
口口口口 |----|
32
口①口口 |①---|
口②口口 |②---|
口③口口 |③---|
口④口口 |④---|
33
口④④口 |①---|
口口③口 |②---|
口口②口 |③---|
口口①口 |④---|
34
口口口① |①---|
口口口口 |----|
口口口口 |----|
口口口口 |----|
35
口口口口 |①---|
口口①口 |----|
口口口口 |----|
口口口口 |----|
36
口口口口 |①---|
口口口口 |----|
口①口口 |----|
口口口口 |----|
37
口口口口 |①---|
③口口口 |②---|
②口口口 |③---|
①口口口 |----|
38
口①①口 |①---|
口口口口 |----|
口口口口 |----|
口口口口 |----|
39
口口口口 |①---|
口①①口 |----|
口口口口 |----|
口口口口 |----|
40
口口口口 |①---|
口口口口 |----|
口①①口 |----|
口口口口 |----|
41
口口口口 |①---|
口口口口 |----|
口口口口 |----|
口①①口 |----|
42
④④④④ |①---|
③③③口 |②---|
②②口口 |③---|
①口口口 |④---|
43
口②②口 |--①-|
口口口口 |----|
口口①口 |②---|
口口口口 |----|
44
口口口口 |①---|
④③②① |②---|
口口口口 |③---|
口口口口 |④---|
45
口口口口 |①---|
口口口口 |②---|
①②③口 |③---|
口口口口 |----|
46
口口口口 |①---|
口口口口 |②---|
口③④口 |③---|
口①②口 |④---|
47
口③④④ |①---|
口①②口 |②---|
口口口口 |③---|
口口口口 |④---|
48
口口口口 |①---|
口口口口 |②---|
③②①口 |③---|
④口口口 |④---|
49
口口口口 |①---|
口口口口 |②---|
口口口口 |③---|
口①②③ |----|
50
口口口口 |①---|
口口口口 |----|
口②①口 |②---|
口口口口 |----|
51
口②②口 |①---|
口①①口 |----|
口口口口 |②---|
口口口口 |----|
52
口口口口 |①---|
①②③④ |②---|
口口口口 |③---|
口口口口 |④---|
53
口口口口 |①---|
口口口口 |②---|
口③②① |③---|
口口口口 |----|
54
口口口口 |①---|
口口口口 |②---|
口④③口 |③---|
口②①口 |④---|
55
④④③口 |①---|
口②①口 |②---|
口口口口 |③---|
口口口口 |④---|
56
口口口口 |①---|
口口口口 |②---|
口①②③ |③---|
口口口④ |④---|
57
口口口口 |①---|
口口口口 |②---|
口口口口 |③---|
③②①口 |----|
58
口口口口 |①---|
口口口口 |----|
口①②口 |②---|
口口口口 |----|
59
②②②② |①---|
口①①口 |----|
口口口口 |②---|
口口口口 |----|
60
口口口口 |①---|
①②③④ |②---|
口口口口 |③---|
口口口口 |④---|
61
口②②口 |--①-|
口口口口 |----|
口①①口 |②---|
口口口口 |----|

不確定度: 0

最終更新:2016年08月08日 00:56