Ready Go!!
荒牧陽子

ADVANCED

Level: 6
BPM: 220
Notes: 390

1
口口口口 |----|
口口口口 |----|
口口口口 |----|
口口口口 |----|
2
口口口口 |①---|
口口口口 |--②-|
口口口口 |----|
①口口② |----|
3
③②②③ |①---|
口①①口 |--②-|
口口口口 |--③-|
口④口口 |--④-|
4
口口口口 |①---|
②口口③ |--②-|
②口口③ |----|
口口①口 |--③-|
5
口口口口 |----|
口③④口 |----|
口①②口 |①-②-|
口口口口 |③-④-|
6
口口口口 |①---|
口口口口 |--②-|
口口口口 |----|
①口口② |----|
7
③②②③ |①---|
口①①口 |--②-|
口口口口 |--③-|
口④口口 |--④-|
8
口口口口 |①---|
②口口③ |--②-|
②口口③ |----|
口口①口 |--③-|
9
口口口口 |----|
口③④口 |----|
口①②口 |①-②-|
口口口口 |③-④-|
10
①①口口 |----|
口口口口 |①---|
口③口② |②---|
口口口口 |③---|
11
口口口口 |①---|
口①口① |--②-|
口口口口 |----|
口②口② |----|
12
口口①① |----|
口口口口 |①---|
②口③口 |②---|
口口口口 |③---|
13
口口口口 |①---|
①口①口 |--②-|
口口口口 |--③-|
②③②③ |----|
14
①①口口 |----|
口口口口 |①---|
口③口② |②---|
口口口口 |③---|
15
口口口口 |①---|
口①口① |--②-|
口口口口 |----|
口②口② |----|
16
口口口口 |①---|
口③④口 |②---|
口①②口 |③---|
口口口口 |④---|
17
②口口② |①---|
③口口③ |--②-|
①口口① |--③-|
口④口口 |--④-|
18
口口口口 |①---|
口口口口 |----|
口口口口 |----|
口口①口 |----|
19
口①①口 |----|
口②②口 |--①-|
口口口口 |--②-|
③口口口 |--③-|
20
口口口口 |①---|
口口口口 |----|
口口口口 |----|
口口口① |----|
21
口口口口 |----|
口口口口 |----|
①口口口 |--①-|
口①口口 |----|
22
口口口口 |①---|
口口口口 |----|
口口口① |----|
口口①口 |----|
23
②口口① |----|
①口口② |--①-|
口③口口 |--②-|
口口口口 |--③-|
24
口口口口 |①---|
口口口口 |----|
口口①口 |----|
口口口口 |----|
25
口口口口 |----|
口口口口 |----|
口口口口 |----|
口口口口 |----|
26
①①口口 |----|
口口口口 |①---|
口③口② |②---|
口口口口 |③---|
27
口口口口 |①---|
口口①① |--②-|
口口口口 |----|
②②口口 |----|
28
口口①① |----|
口口口口 |①---|
②口③口 |②---|
口口口口 |③---|
29
口口口口 |①---|
①①口口 |--②-|
③③口口 |--③-|
口口②② |----|
30
①①口口 |----|
口口口口 |①---|
口③口② |②---|
口口口口 |③---|
31
口口口① |①---|
口口口① |--②-|
②口口口 |----|
②口口口 |----|
32
口口口口 |①---|
口③④口 |②---|
口①②口 |③---|
口口口口 |④---|
33
③①②③ |①---|
④口口④ |②-③-|
口口口口 |--④-|
口⑤口口 |--⑤-|
34
口口口口 |①---|
口口口口 |----|
口口口口 |----|
口口①口 |----|
35
口①①口 |----|
口②②口 |--①-|
口口口口 |--②-|
③口口口 |--③-|
36
口口口口 |①---|
口口口口 |----|
口口口口 |----|
口口口① |----|
37
口口口口 |----|
口口口口 |----|
口①口口 |--①-|
①口口口 |----|
38
口口口口 |①---|
口口口口 |----|
口口①口 |----|
口口口① |----|
39
①①②② |----|
口口口口 |--①-|
口③③口 |--②-|
口口口口 |--③-|
40
口口口口 |①---|
口口口口 |----|
口口口口 |----|
口①①口 |----|
41
口口口口 |----|
口口①口 |----|
口①口口 |----|
口口口口 |①---|
42
口口②口 |①---|
口①②口 |----|
口②①口 |----|
口②口口 |②---|
43
口①口口 |①---|
口①口口 |----|
②口①口 |----|
口口①口 |②---|
44
口口口口 |①---|
口口口口 |--②-|
口②口① |----|
口口口口 |----|
45
口①①口 |①---|
口②②口 |--②-|
口口口口 |----|
③口口③ |③---|
46
口口口口 |①---|
口②口口 |----|
①口②① |----|
口口口口 |②---|
47
口口口口 |①---|
口口①口 |----|
口①口② |----|
口口口口 |②---|
48
口口口口 |①---|
口③③口 |--②-|
①②口口 |----|
口口口口 |③---|
49
②口口② |①---|
口③口口 |--②-|
①口③① |----|
口口口口 |③---|
50
口口口口 |①---|
口口①② |----|
②①口口 |----|
口口口口 |②---|
51
口口口口 |①---|
①口口口 |----|
口②②① |--②-|
口③③口 |--③-|
52
口③④口 |①-②-|
⑥①②⑥ |③-④-|
口口口口 |--⑤-|
⑤口口⑤ |--⑥-|
53
①口口① |①---|
口口口口 |----|
②②口口 |----|
口口口口 |②---|
54
①①口口 |①---|
口口口口 |----|
口口②② |----|
口口口口 |②---|
55
口口①① |①---|
口口口口 |----|
口口口口 |----|
口②③口 |②-③-|
56
④口口④ |①-②-|
口⑤⑤口 |③-④-|
口①②口 |----|
③口口③ |⑤---|
57
口口口口 |①---|
③口口口 |--②-|
①口口② |----|
③①②口 |③---|
58
口①口口 |①---|
口口口② |----|
口①口口 |----|
口口口② |②---|
59
口口①口 |①---|
口口口口 |----|
口口①口 |----|
口②③口 |②-③-|
60
④口口④ |①-②-|
口⑤⑤口 |③-④-|
口①②口 |----|
③口口③ |⑤---|
61
口②口口 |①---|
②口口口 |--②-|
③口③① |----|
③口①口 |③---|
62
口口口口 |①---|
口①口① |----|
口①口② |----|
口②口② |②---|
63
口口①口 |①---|
①口①口 |----|
口口口口 |----|
口②③口 |②-③-|
64
④口口④ |①-②-|
口⑤⑤口 |③-④-|
口①②口 |----|
③口口③ |⑤---|
65
口③③口 |①---|
口口口口 |--②-|
①口口② |----|
口①②口 |③---|
66
口口口口 |①---|
①①①① |----|
口口口口 |----|
口②②口 |②---|
67
口口口口 |①---|
口口口口 |----|
①①①① |----|
口②②口 |②---|
68
口口口口 |①---|
①①①① |----|
口口口口 |----|
②口口② |②---|
69
①口口① |①---|
口②②口 |--②-|
口②②口 |----|
③口口③ |③---|
70
①①①① |①---|
②口③口 |--②-|
口口口口 |----|
口口口口 |③---|
71
口口口口 |①---|
口口口① |--②-|
②口③口 |----|
口口口口 |③---|
72
口口口口 |①---|
口口口口 |----|
②口口② |--②-|
口①①口 |----|
73
口口口口 |----|
口口口口 |----|
口口口口 |----|
口口口口 |----|
74
①口②口 |①---|
③口④口 |②---|
口口口口 |③---|
口口口口 |④---|
75
口口口口 |①---|
口①口② |②---|
口③口④ |③---|
口口口口 |④---|
76
口口口口 |①---|
口口④口 |②---|
①口②口 |③---|
③口④口 |④---|
77
①口②口 |①---|
口③口④ |②---|
口口口口 |③---|
口口口口 |④---|
78
口口③③ |①---|
②口口口 |--②-|
口口口口 |----|
口①口口 |--③-|
79
口口口口 |----|
口口①① |①---|
口口口口 |----|
口口口口 |----|
80
口②口② |①---|
口口口口 |----|
口口口口 |②---|
①口①口 |----|
81
口口口口 |----|
口口口口 |----|
口口口口 |----|
口口口口 |----|
82
①③③口 |①---|
口①口口 |--②-|
②口口口 |----|
口②口口 |③---|
83
口口口口 |----|
口口口口 |----|
口口口口 |①---|
①口口① |----|
84
口口口② |①---|
口口②口 |--②-|
口③③① |----|
口口①口 |③---|
85
口口口口 |----|
口口口口 |----|
口口口口 |----|
口口口口 |----|
86
口口③口 |①---|
口口口③ |--②-|
①口口② |----|
口①②口 |③---|
87
口①口口 |--①-|
①③③口 |----|
口②②口 |②---|
口口口口 |--③-|
88
口口口口 |----|
①口口① |----|
口口口口 |-----①--|
口②②口 |---②----|
89
口①①口 |-①--|
口口口口 |----|
口口口口 |----|
口口口口 |----|
90
①⑥⑥① |①-②-|
②口口② |③-④-|
③⑤⑤③ |--⑤-|
④口口④ |--⑥-|
91
①口口① |--①-|
口口口口 |②---|
口口口口 |----|
口②②口 |----|


不确定度: 0

タグ:

+ タグ編集
  • タグ:

このサイトはreCAPTCHAによって保護されており、Googleの プライバシーポリシー利用規約 が適用されます。

最終更新:2012年11月10日 14:31