SAKURAスキップ
fourfolium

ADVANCED

Level: 6
BPM: 165
Notes: 346

1
口口口口 |----|
口口口口 |----|
口口口口 |----|
口口口口 |----|
2
③口②① |①---|
④口口口 |②---|
⑤口口口 |③-④-|
⑥口口口 |⑤-⑥-|
3
口口口口 |--①-|
口④③口 |--②-|
口口口② |--③-|
口口口① |④---|
4
①②口③ |①---|
口口口④ |②---|
口口口⑤ |③-④-|
口口口⑥ |⑤-⑥-|
5
口口②② |--①-|
①口口口 |--②-|
①③③口 |--③-|
口口口口 |----|
6
口口口口 |①---|
口①①口 |----|
口口口口
口口口口

口②③口
口④⑤口
口口口口 |②-③-|
口口口口 |④-⑤-|
7
口口口口 |--①-|
口口口口 |②-③-|
口③口口 |----|
口①②口 |----|
8
口⑤⑥口 |①---|
口③④① |②---|
口口口口 |③-④-|
口口②口 |⑤-⑥-|
9
口口口口 |----|
口口口口 |----|
口口口口 |----|
口口口① |--①-|
10
⑤口④⑥ |--①-|
口③口口 |②-③-|
口口②口 |④---|
口①口口 |⑤-⑥-|
11
口①口口 |--①-|
口口②⑤ |②-③-|
口③口口 |④---|
口口④口 |--⑤-|
12
③②①④ |--①-|
口⑤口口 |②-③-|
口⑥口口 |④---|
口口口口 |⑤-⑥-|
13
口口口口 |--①-|
⑤⑥口⑤ |②-③-|
口口④③ |④---|
口口①② |⑤-⑥-|
14
⑥④口⑤ |--①-|
口口③口 |②-③-|
口②口口 |④---|
口口①口 |⑤-⑥-|
15
口口①口 |--①-|
口②口⑤ |②-③-|
口口③口 |④---|
口④口口 |--⑤-|
16
口口口⑦ |--①-|
口⑥⑤⑦ |②-③-|
口④③口 |④-⑤-|
口②①口 |⑥-⑦-|
17
①③③口 |--①-|
①口口口 |--②-|
口②②口 |③---|
口口口口 |----|
18
①口口口 |①---|
②口口口 |②---|
③④口⑤ |③---|
口④口⑤ |④-⑤-|
19
口口口口 |----|
④④③③ |①---|
口口②口 |②---|
口口①口 |③-④-|
20
口③口④ |----|
口③口④ |①---|
口①②口 |②---|
口口口口 |③-④-|
21
口口口口 |----|
口口口口 |①---|
口①①口 |②---|
口②②口 |----|
22
①口口口 |①---|
②口口口 |②---|
③④口⑤ |③---|
口④口⑤ |④-⑤-|
23
口口口口 |----|
④④③③ |①---|
口口②口 |②---|
口口①口 |③-④-|
24
口口口⑦ |--①-|
口⑥⑤口 |②-③-|
口④③口 |④-⑤-|
口②①口 |⑥-⑦-|
25
①口口口 |--①-|
口③③口 |--②-|
口口②口 |③---|
口口口口 |----|
26
口口口口 |①-②-|
口口口口 |③-④-|
⑧⑦⑥⑤ |⑤-⑥-|
①②③④ |⑦-⑧-|
27
①②③④ |--①-|
口口口口 |②-③-|
口口口口 |④---|
口口口口 |----|
28
口口⑥口 |①-②-|
口②①⑤ |③-④-|
口④③口 |--⑤-|
口口口口 |--⑥-|
29
①口口口 |----|
②口口口 |①---|
③口口口 |②---|
口口口口 |③---|
30
口口口口 |①-②-|
口口口口 |③-④-|
⑧⑦⑥⑤ |⑤-⑥-|
①②③④ |⑦-⑧-|
31
①②③④ |--①-|
口口口口 |②-③-|
口口口口 |④---|
口口口口 |----|
32
口⑥⑤口 |①-②-|
口口⑦口 |③-④-|
口④③口 |--⑤-|
口②①口 |⑥-⑦-|
33
口口口口 |----|
口口口口 |----|
①口口① |----|
口口口口 |①---|
34
口①口口 |①---|
口③②④ |②-③-|
口⑤口口 |--④-|
口口口口 |--⑤-|
35
口口口口 |----|
口口口口 |----|
口口口口 |--①-|
口③②① |②-③-|
36
口口口口 |①---|
口口口口 |②-③-|
④②③口 |--④-|
①口⑤口 |--⑤-|
37
口口③口 |--①-|
口口②口 |②---|
口口口口 |③---|
口①口口 |----|
38
口口口口 |①---|
口④口口 |----|
①②③① |--②-|
口口口口 |③-④-|
39
口口①口 |①---|
口口②口 |②---|
口口③口 |③---|
口口④口 |④---|
40
口口口口 |①---|
①②③① |----|
口④口口 |--②-|
口口口口 |③-④-|
41
口口口口 |①---|
口口口口 |----|
口口①口 |----|
口口口口 |----|
42
④④④④ |①---|
③③③口 |②---|
②②口口 |③---|
①口口口 |④---|
43
②②②② |--①-|
口口③口 |----|
口①①口 |②---|
口口口口 |--③-|
44
⑤口④⑥ |--①-|
口③口口 |②-③-|
口口②口 |④---|
口①口口 |⑤-⑥-|
45
口①口口 |--①-|
口口②⑤ |②-③-|
口③口口 |④---|
口口④口 |--⑤-|
46
③②①④ |--①-|
口⑤口口 |②-③-|
口⑥口口 |④---|
口口口口 |⑤-⑥-|
47
口口口口 |--①-|
⑤口口⑤ |②-③-|
口口④③ |④---|
口⑥①② |⑤-⑥-|
48
⑦④口⑥ |--①-|
口口③⑤ |②-③-|
口②口口 |④-⑤-|
口口①口 |⑥-⑦-|
49
口口①口 |--①-|
口②口⑤ |②-③-|
口口③口 |④---|
口④口口 |--⑤-|
50
口口口⑦ |--①-|
口⑥⑤⑦ |②-③-|
口④③口 |④-⑤-|
口②①口 |⑥-⑦-|
51
①③③口 |--①-|
①口④口 |--②-|
口②②口 |③---|
口口口口 |--④-|
52
⑥口④⑦ |--①-|
⑤③口口 |②-③-|
口口②口 |④-⑤-|
口①口口 |⑥-⑦-|
53
口①口口 |--①-|
⑤口②口 |②-③-|
口③口口 |④---|
口口④口 |--⑤-|
54
口①②③ |--①-|
口④⑤⑥ |②-③-|
口⑦口口 |④-⑤-|
口口口口 |⑥-⑦-|
55
④口口⑥ |--①-|
口⑤③⑤ |②-③-|
②口口口 |④---|
口口①口 |⑤-⑥-|
56
口①口口 |--①-|
⑥口②⑥ |②-③-|
⑤③口⑤ |④---|
口口④口 |⑤-⑥-|
57
口口①口 |--①-|
口②⑤口 |②-③-|
口口③口 |④---|
口④口口 |--⑤-|
58
①口口口 |--①-|
口⑦⑦② |②-③-|
③口口⑥ |④-⑤-|
⑤口口④ |⑥-⑦-|
59
③③③③ |--①-|
口口口口 |--②-|
口②②口 |③---|
口①①口 |----|
60
口口口口 |①-②-|
①③④② |③-④-|
口⑤⑥口 |⑤-⑥-|
口⑦⑧口 |⑦-⑧-|
61
④口口④ |--①-|
③口口③ |②-③-|
②口口② |④---|
①口口① |----|

不確定度: 0

最終更新:2016年08月08日 00:55