SAKURAスキップ
fourfolium

EXTREME

Level: 8
BPM: 165
Notes: 450

1
口口口口 |----|
口口口口 |----|
口口口口 |----|
口口口口 |----|
2
③口②① |①---|
④口口口 |②---|
⑤口口口 |③-④-|
口⑥口口 |⑤-⑥-|
3
口口口④ |--①-|
口口口③ |--②-|
口口口口 |--③-|
口口①② |④---|
4
②①口口 |①---|
口口口口 |②---|
口口口口
口口口口

口⑥口⑥
口口口口
③口⑥口 |③-④-|
④⑤口口 |⑤-⑥-|
5
②口①口 |--①-|
口口②口 |--②-|
②①口① |--③-|
③③③③ |----|
6
③②①口 |①---|
口④口口 |②---|
口口⑤口 |③-④-|
口口口⑥ |⑤-⑥-|
7
口口口③ |--①-|
口口口② |②-③-|
口口口① |----|
口口口口 |----|
8
口口口口 |①---|
①口①口 |②---|
③④⑤⑥ |③-④-|
②口②口 |⑤-⑥-|
9
③口口④ |----|
②口③口 |①---|
①口②口 |②---|
④口①口 |③-④-|
10
口①口口 |--①-|
口⑥⑤④ |②-③-|
②⑤⑥口 |④---|
口口③口 |⑤-⑥-|
11
口⑤③口 |--①-|
②口口口 |②-③-|
口口口④ |④---|
口①口口 |--⑤-|
12
口口口① |--①-|
口口②④ |②-③-|
⑦③⑤口 |④-⑤-|
口⑥口口 |⑥-⑦-|
13
⑥口口⑤ |--①-|
口口口⑤ |②-③-|
口③口① |④---|
④口②⑥ |⑤-⑥-|
14
口口①⑥ |--①-|
④⑤口口 |②-③-|
口口⑤② |④---|
⑥③口口 |⑤-⑥-|
15
口④⑤口 |--①-|
口口口③ |②-③-|
①口口口 |④---|
口口②口 |--⑤-|
16
①口口口 |--①-|
④②口口 |②-③-|
口⑤③⑦ |④-⑤-|
口口⑥口 |⑥-⑦-|
17
①①口口 |--①-|
③③③③ |--②-|
口②②口 |③---|
口口口口 |----|
18
口口口口 |①-②-|
口口口口 |③-④-|
⑧⑦⑥⑤ |⑤-⑥-|
①②③④ |⑦-⑧-|
19
④①②③ |--①-|
⑧口⑤口 |②-③-|
口⑥口口 |④-⑤⑥|
口口⑦口 |⑦-⑧-|
20
⑦口口① |--①-|
口⑥口② |②-③-|
口口⑤③ |④-⑤-|
口口口④ |⑥-⑦-|
21
口口口口 |--①-|
④口②口 |②-③-|
口③⑥① |④---|
口⑤口口 |--⑤⑥|
22
口口口② |①-②-|
口①③口 |③-④-|
口④口口 |⑤-⑥-|
⑤⑥⑦⑧ |⑦-⑧-|
23
③②①④ |--①-|
口⑤⑧⑧ |②-③-|
口口⑥口 |④-⑤⑥|
口⑦口口 |⑦-⑧-|
24
口②④⑥ |--①-|
①③⑤⑦ |②-③-|
口口口口 |④-⑤-|
口口口口 |⑥-⑦-|
25
口③③③ |--①-|
②②②口 |--②-|
口口口口 |③---|
口①①口 |----|
26
口③口⑧ |①-②-|
口口④⑧ |③-④-|
⑤口口② |⑤-⑥-|
①⑦⑥口 |⑦-⑧-|
27
①口口口 |--①-|
②口口口 |②-③-|
③口口口 |④---|
④口口口 |----|
28
口口口口 |①-②-|
④③②① |③-④-|
口口口⑥ |--⑤-|
⑤口口口 |--⑥-|
29
①口①口 |----|
②口②口 |①---|
③口③口 |②---|
口口口口 |③---|
30
④口口③ |①-②-|
⑧口⑤① |③-④-|
⑧②口口 |⑤-⑥-|
口⑥⑦口 |⑦-⑧-|
31
口口口① |--①-|
口口口② |②-③-|
口口口③ |④---|
口口口④ |----|
32
⑤口口④ |①-②-|
口③口口 |③-④-|
⑦口⑥② |--⑤-|
⑦①口口 |⑥-⑦-|
33
④③③④ |--①-|
口口口① |--②-|
口口口① |③---|
口②②口 |④---|
34
口口口口 |①---|
⑤①口④ |②-③-|
口口③② |--④-|
口④⑤口 |--⑤-|
35
②③口口 |----|
①口口口 |----|
口口口口 |--①-|
口口口口 |②-③-|
36
口④①口 |①---|
口口口口 |②-③-|
口③②口 |--④-|
口⑤口口 |--⑤-|
37
③③③口 |--①-|
②口①口 |②---|
①口②口 |③---|
口口口口 |----|
38
②口口口 |①---|
③口口口 |----|
④①①口 |--②-|
口口口口 |③-④-|
39
口口①① |①---|
口口②② |②---|
口口③③ |③---|
口口④④ |④---|
40
①口口① |①---|
口②③口 |----|
口口④口 |--②-|
口口口口 |③-④-|
41
③口口② |①---|
口口口口 |②---|
口①口口 |③---|
口口口④ |④---|
42
④④④④ |①---|
③③③口 |②---|
②②口口 |③---|
①口口口 |④---|
43
口口口④ |--①-|
③③③③ |--②-|
①口口① |③---|
④②②口 |--④-|
44
口①口口 |--①-|
口⑥⑤④ |②-③-|
②⑤⑥口 |④---|
口口③口 |⑤-⑥-|
45
⑤口③口 |--①-|
②口口口 |②-③-|
口口口④ |④---|
口①口口 |--⑤-|
46
口④⑤⑤ |--①-|
口口①① |②-③-|
②口③③ |④-⑤-|
⑥口⑦⑦ |⑥-⑦-|
47
①口③口 |--①-|
口口口② |②-③-|
②口①口
口③口口

⑥口口⑤
④口口口
口口口④ |④---|
⑤口口⑥ |⑤-⑥-|
48
⑦口口口 |--①-|
口④③⑥ |②-③-|
口①②口 |④-⑤-|
口⑤口⑦ |⑥-⑦-|
49
口口①⑤ |--①-|
④口口口 |②-③-|
口口口② |④---|
⑤③口口 |--⑤-|
50
口⑦①⑦ |--①-|
②口④口 |②-③-|
⑥口口口 |④-⑤-|
口⑤③口 |⑥-⑦-|
51
④口口口 |--①-|
②③②③ |--②-|
③②③② |③---|
①口①④ |--④-|
52
⑦④⑤口 |--①-|
③口口⑥ |②-③-|
②口口口 |④-⑤-|
口①口⑦ |⑥-⑦-|
53
口口口⑤ |--①-|
②口①口 |②-③-|
口口④口 |④---|
③口④口 |--⑤-|
54
⑤⑤④口 |--①-|
①①口口 |②-③-|
③③口② |④-⑤-|
⑦⑦口⑥ |⑥-⑦-|
55
口③口① |--①-|
②口口口 |②-③-|
口①口②
口口③口

⑤口口⑥
口口口④
④口口口 |④---|
⑥口口⑤ |⑤-⑥-|
56
⑥口③⑥ |--①-|
②⑤⑤口 |②-③-|
口口口① |④---|
口④④口 |⑤-⑥-|
57
⑤口口口 |--①-|
②④④② |②-③-|
③①①③ |④---|
口口口⑤ |--⑤-|
58
⑦口⑦① |--①-|
口④口③ |②-③-|
②口口⑥ |④-⑤-|
口口⑤口 |⑥-⑦-|
59
口口口口 |--①-|
③②③② |--②-|
②③②③ |③---|
口①口① |----|
60
③口口⑥ |①-②-|
口⑦④口 |③-④-|
⑤口口口 |⑤-⑥-|
口①⑧② |⑦-⑧-|
61
①口口口 |--①-|
②④④③ |②-③-|
③④④② |④---|
口口口① |----|

不確定度: 0

最終更新:2016年08月08日 00:55