ワタリドリ
[Alexandros]

EXTREME

Level: 8
BPM: 135
Notes: 578

1
口口口口 |----|
口口口口 |----|
口口口口 |----|
口口口口 |----|
2
①口口口 |①--②|
口口口口 |--③④|
④口口口
口口③②

⑥⑦口口
口口⑤⑧
口口口口 |⑤--⑥|
口口口口 |--⑦⑧|
3
⑥⑦口口 |①--②|
口口⑤⑧ |--③④|
④①口口 |⑤--⑥|
口口③② |--⑦⑧|
4
⑥⑦⑤口 |①--②|
④口口⑧ |--③④|
口①③口 |⑤--⑥|
口口②口 |--⑦⑧|
5
口口口口 |①--②|
口口⑤口 |--③④|
④①口口 |⑤---|
口口③② |----|
6
①①口口 |①--②|
口口口口 |③-④⑤|
⑤口口口
③口④②

⑦⑨口⑧
口口⑥⑩
口口口口 |⑥--⑦|
口口口口 |⑧-⑨⑩|
7
⑦口口⑧ |①--②|
口⑨⑥口 |③-④⑤|
⑤①口⑩ |⑥--⑦|
③口④② |⑧-⑨⑩|
8
⑦口⑥⑧ |①--②|
⑤⑨口口 |③-④⑤|
口口④⑩ |⑥--⑦|
③①口② |⑧-⑨⑩|
9
口口口口 |①--②|
口口⑥口 |③-④⑤|
⑤口口口 |⑥---|
③①④② |----|
10
①口口口 |①--②|
口口口口 |③-④⑤|
⑤口口口
③口④②

⑦⑨口⑧
口口⑥⑩
口口口口 |⑥--⑦|
口口口口 |⑧-⑨⑩|
11
⑦口口⑧ |①--②|
口⑨⑥口 |③-④⑤|
⑤①口⑩ |⑥--⑦|
③口④② |⑧-⑨⑩|
12
⑦口⑥⑧ |①--②|
⑤⑨口口 |③-④⑤|
口口④⑩ |⑥--⑦|
③①口② |⑧-⑨⑩|
13
口口口口 |①--②|
口口口口 |③-④⑤|
⑤口口口
③①④②

⑨口口口
口口⑥口
口口口⑧ |⑥-⑦-|
口⑦口口 |⑧-⑨-|
14
口①口口 |①--②|
口②口⑤ |--③-|
口③⑥口 |--④-|
④口口口 |⑤-⑥-|
15
③口口⑥ |①--②|
②⑤口口 |--③-|
①口口④ |--④-|
口口口口 |⑤-⑥-|
16
口口①口 |①--②|
⑤口②口 |--③-|
口口③口 |--④-|
④口口口 |--⑤-|
17
口口口口 |①---|
口口口口 |--②-|
②口口① |③---|
口口④③ |--④-|
18
口①口口 |①--②|
⑤②口口 |--③-|
口③口⑥ |--④-|
口口口④ |⑤-⑥-|
19
③④③口 |①--②|
口③⑤口 |--③-|
口②口④ |--④-|
⑥①口口 |⑤-⑥-|
20
口口①口 |①--②|
口口口① |--③-|
口②口口
口口口③

口④口口
④口⑤口
口⑥口口 |④--⑤|
口口口口 |--⑥-|
21
④口口口 |①---|
③④口口 |----|
②③口口 |--②-|
口②①口 |③-④-|
22
口⑥口① |--①-|
⑥⑤①② |②-③-|
⑤④②③ |--④-|
④口③口 |⑤-⑥-|
23
口口①口 |--①-|
④口②① |②-③-|
口⑥③② |--④-|
口口⑤③ |⑤-⑥-|
24
②口②口 |①--②|
口口①口 |--③-|
口口③口
口口口口

口④口④
⑤口⑤口
口⑥口⑥ |④--⑤|
口口口口 |--⑥-|
25
④③②口 |①---|
口口口口 |----|
口口口口 |--②-|
①口①口 |③-④-|
26
口口口④ |--①-|
口口口⑤ |②-③-|
口口口⑥ |--④-|
口①②③ |⑤-⑥-|
27
口口口⑤ |--①-|
③口口口 |②-③-|
②④④口 |--④-|
①口口口 |--⑤-|
28
②②⑦⑦ |①--②|
口⑧⑨⑩ |-③④⑤|
⑤④③口 |⑥--⑦|
①①⑥⑥ |-⑧⑨⑩|
29
⑤口口⑥ |①-②③|
口口口口 |④⑤⑥⑦|
③⑦口④
①①②口

口口口口
口口口口
口口⑧口 |⑧---|
口⑨⑨口 |⑨---|
30
①口②① |①--②|
③①①④ |③-④-|
①口②①
口口④口

口⑤⑧⑥
口口口口
⑦⑤⑧⑥ |⑤--⑥|
口口口口 |⑦-⑧-|
31
口口口口 |①--②|
口①②④ |③-④-|
口③口口
口①口口

⑥口口口
口⑥口口
⑧口口⑦ |⑤-⑥-|
⑤⑧口口 |⑦-⑧-|
32
④口口④ |①--②|
口③②口 |③-④-|
口①口口
口口口①

口⑥⑥口
⑦口口⑦
口⑥⑥口 |⑤-⑥-|
口⑤口口 |--⑦-|
33
①⑤⑤① |①--②|
口②口口 |③-④-|
①④③① |⑤---|
口⑥⑥口 |⑥---|
34
①口②① |①--②|
③①①④ |③-④-|
①口②①
口口④口

口⑤⑧⑥
口口口口
⑦⑤⑧⑥ |⑤--⑥|
口口口口 |⑦-⑧-|
35
口口口口 |①--②|
口①②④ |③-④-|
口③口口
口①口口

⑥口口口
口⑥口口
⑧口口⑦ |⑤-⑥-|
⑤⑧口口 |⑦-⑧-|
36
④口口④ |①--②|
口口②口 |③-④-|
口①口口
③口口①

口口⑥口
口⑥⑦⑥
口口⑥口 |⑤-⑥-|
口⑤口口 |--⑦-|
37
口①口① |①---|
③口口② |--②-|
口①口① |③---|
②④口③ |--④-|
38
①口口④ |①--②|
口①口④ |③-④-|
口③②口
口口口口

口⑤口口
口⑦⑦口
口口口⑥ |⑤-⑥-|
⑦口口⑦ |⑦---|
39
口③④口 |①--②|
口口口② |③-④-|
口③④口
口①口口

口口口⑤
口⑧⑦口
⑥口口⑤ |⑤--⑥|
口⑧⑦口 |⑦-⑧-|
40
口②⑤口 |①--②|
①⑥口⑧ |③-④-|
④⑦③⑦ |⑤-⑥-|
①⑧口⑥ |⑦-⑧-|
41
口口②④ |①--②|
口③①口 |③-④-|
口口④口
口口①口

⑦口口口
口口口口
⑧⑧口⑥ |⑤⑥⑦-|
⑤口⑧⑧ |⑧---|
42
④口口① |①--②|
②口①口 |③-④-|
口④口③
口口口口

口口口口
口⑦⑦⑤
⑥口口口 |⑤-⑥-|
⑦口口⑦ |⑦---|
43
口④③口 |①--②|
②口口口 |③-④-|
口④③口
口口①口

⑤口口口
口⑦⑧口
⑤口口⑥ |⑤--⑥|
口⑦⑧口 |⑦-⑧-|
44
②口口③ |①--②|
口口口① |③-④-|
口④口口
口口口①

口⑤口口
口⑦⑥⑧
口口口口 |⑤-⑥-|
⑦口⑧⑥ |⑦-⑧-|
45
②②②② |①---|
①④④口 |②---|
③④④③ |③---|
③①口③ |④---|
46
口①①口 |①--②|
①口口① |③-④⑤|
⑤口口口
③口④②

⑦⑨口⑧
口口⑥⑩
口口口口 |⑥--⑦|
口口口口 |⑧-⑨⑩|
47
⑦口口⑧ |①--②|
口⑨⑥口 |③-④⑤|
⑤①口⑩ |⑥--⑦|
③口④② |⑧-⑨⑩|
48
⑦口⑥⑧ |①--②|
⑤⑨口口 |③-④⑤|
口口④⑩ |⑥--⑦|
③①口② |⑧-⑨⑩|
49
口口口口 |①--②|
口口⑥口 |③-④⑤|
⑤口口口 |⑥---|
③①④② |----|
50
①口口口 |①--②|
①口口口 |③-④⑤|
⑤口口②
③口④②

⑦⑨口⑧
⑦口⑥⑩
口口口口 |⑥--⑦|
口口口口 |⑧-⑨⑩|
51
⑦⑨口⑧ |①--②|
⑦口⑥⑩ |③-④⑤|
⑤①口② |⑥--⑦|
③口④② |⑧-⑨⑩|
52
⑦⑨口⑧ |①--②|
⑦口⑥⑩ |③-④⑤|
⑤①口② |⑥--⑦|
③口④② |⑧-⑨⑩|
53
口口口口 |①--②|
口口⑥口 |③-④⑤|
⑤①口② |⑥---|
③口④② |----|
54
③①口口 |①-②③|
①③口口 |-④⑤-|
口⑤口④
⑤口口②

⑪⑨口口
⑨⑪⑥口
⑦口⑧口 |⑥⑦-⑧|
口⑦口⑩ |⑨-⑩⑪|
55
口⑥口口 |-①②-|
⑥口口① |③④-⑤|
④②⑤③ |⑥---|
②④口口
56
口口①③ |①-②③|
口④③① |-④⑤-|
口口⑤口
②口口⑤

口口⑨⑪
口口⑪⑨
⑥⑧口⑦ |⑥⑦-⑧|
口⑩⑦口 |⑨-⑩⑪|
57
口口口口 |-①②-|
①口口口 |③④-⑤|
口⑤②④
③口④②

⑦口⑥口
口⑦口⑥
⑨口⑧口 |⑥-⑦-|
口⑨口⑧ |⑧-⑨-|
58
口①口口 |①---|
①口口口 |----|
口口口① |----|
口口①口 |----|

不確定度: 0

最終更新:2017年07月30日 19:22