アンビリーバーズ
米津玄師

EXTREME

Level: 8
BPM: 133
Notes: 575

1
口①口口 |----|
①口①口 |----|
口①口口 |----|
口口口口 |①---|
2
口口口⑨ |①-②③|
⑤②⑥① |④-⑤-|
口⑦③⑩ |⑥⑦⑧-|
口④⑧口 |⑨-⑩-|
3
口⑨口⑨ |①-②③|
①⑥②⑤ |④-⑤-|
⑩③⑦口 |⑥⑦⑧-|
口⑧④口 |⑨-⑩-|
4
口口口⑨ |①-②③|
⑤②⑥① |④-⑤-|
口⑦③⑩ |⑥⑦⑧-|
口④⑧口 |⑨-⑩-|
5
口口⑨口 |①-②③|
①⑥②⑤ |④-⑤-|
⑩③⑦口 |⑥⑦⑧-|
口⑧④口 |⑨-⑩-|
6
口口口⑨ |①-②③|
⑤②⑥① |④-⑤-|
口⑦③⑩ |⑥⑦⑧-|
口④⑧口 |⑨-⑩-|
7
⑨口⑨口 |①-②③|
①⑥②⑤ |④-⑤-|
⑩③⑦口 |⑥⑦⑧-|
口⑧④口 |⑨-⑩-|
8
口口口⑨ |①-②③|
⑤②⑥① |④-⑤-|
口⑦③⑩ |⑥⑦⑧-|
口④⑧口 |⑨-⑩-|
9
口口⑨口 |①-②③|
①⑥②⑤ |④-⑤-|
⑩③⑦口 |⑥⑦⑧-|
口⑧④口 |⑨-⑩-|
10
⑦口⑥口 |①---|
口⑤口② |②-③④|
口④口口 |--⑤⑥|
①口③① |--⑦-|
11
④口口口 |①--②|
①⑤口③ |--③-|
口口⑥② |----|
口口口口 |④⑤⑥-|
12
口口口① |①--②|
口口口② |--③-|
口口口口
口③口口

口口口④
口口⑤口
口⑥口口 |----|
口口口口 |④⑤⑥-|
13
①口口口 |①--②|
②口口口 |--③-|
口口口口 |----|
口口③口 |----|
14
口④⑥口 |----|
口⑤③口 |①②③④|
口②⑦口 |--⑤⑥|
口⑧①口 |-⑦⑧-|
15
口④口③ |①--②|
②口口⑤ |--③-|
①口口口 |----|
口口口口 |④-⑤-|
16
⑥⑤口口 |①-②③|
口口④⑦ |-④⑤-|
①口②口 |--⑥-|
口③口口 |⑦---|
17
口口口口 |①---|
口口口口 |----|
口口口口 |----|
口①口口 |----|
18
①①⑤口 |①---|
口④口口 |②③④⑤|
口口③口
口②口口

口⑥口口
⑧口⑦口
口口口口 |--⑥⑦|
口口口口 |--⑧-|
19
口⑤⑦口 |①-②③|
口⑧④⑥ |-④⑤-|
口⑨③① |----|
口②口口 |⑥⑦⑧⑨|
20
口④口口 |①-②③|
口口口口 |--④-|
口口③口
口②①口

口口口口
口⑧口口
口⑦口⑤ |----|
口口⑥口 |⑤⑥⑦⑧|
21
口②①口 |①--②|
口口口口 |--③-|
口口口③ |----|
口口口口 |----|
22
口④口口 |----|
口口③口 |①②③④|
口②口口
口口①口

口口⑥口
口⑤口口
口口⑦口 |--⑤⑥|
口⑧⑨口 |-⑦⑧⑨|
23
⑤口口② |①-②③|
口④③口 |-④⑤-|
口①口口
口口口口

口口口口
⑥口口口
口⑦口口 |----|
口口⑧口 |⑥⑦⑧-|
24
口②口口 |①-②③|
口口③① |-④⑤-|
口口④口
口⑤口口

⑥口口口
口口口⑦
⑧口口口 |--⑥-|
口口口口 |⑦-⑧-|
25
⑤⑤⑤⑤ |①-②③|
⑥②③口 |④---|
口④口⑦ |⑤---|
口口口① |⑥-⑦-|
26
口④⑤口 |①-②③|
④口口口 |--④-|
⑥口③口 |--⑤-|
①口②⑦ |⑥-⑦-|
27
①口③口 |①--②|
口口口③ |--③-|
⑤②口口 |--④-|
④⑤口⑥ |⑤-⑥-|
28
④②③口 |①-②-|
②⑦⑦③ |③-④-|
口⑧⑤① |⑤-⑥-|
口⑥①口 |⑦-⑧-|
29
口口④① |①-②③|
口口口④ |--④-|
③口口口
②口口口

⑥⑤口口
口口口口
⑦口口口 |--⑤-|
口口口口 |⑥-⑦-|
30
口④口口 |①-②③|
④②口口 |--④-|
口③④①
口口口④

口口⑤⑥
口口口口
口口口⑦ |--⑤-|
口口口口 |⑥-⑦-|
31
口口④口 |①-②③|
口口②④ |--④-|
①④③口
④口口口

口口口⑥
⑦口口口
⑤口口口 |--⑤-|
口口口口 |⑥-⑦-|
32
口口②口 |①---|
口口口口 |--②-|
④口口① |③---|
口③口口 |--④-|
33
口口口口 |①---|
口口口① |--②-|
口口口①
口口口②

③③口口
口口口口
口口口⑤ |③---|
④口口口 |④-⑤-|
34
口口③⑧ |①--②|
①②口① |③-④-|
⑨⑦④口 |⑤⑥⑦-|
口⑤⑥口 |⑧-⑨-|
35
⑧③①口 |①--②|
口口②口 |③-④-|
口④⑦⑨ |⑤⑥⑦-|
口⑥⑤口 |⑧-⑨-|
36
口①③⑧ |①--②|
口②口口 |③-④-|
⑨⑦④口 |⑤⑥⑦-|
口⑤⑥口 |⑧-⑨-|
37
口②口口 |①--②|
②口①③ |-③④-|
口④口①
口口口口

口⑧口口
口⑦⑥口
⑤口⑤口 |⑤-⑥-|
⑤⑤口⑤ |⑦-⑧-|
38
①口口① |①---|
①口口口 |②-③-|
口③②口
口③③口

口口⑦⑤
⑥口⑥口
⑥口口④ |④-⑤-|
口口口口 |⑥-⑦-|
39
口口口口 |①---|
口口③口 |②-③-|
口口①口
口②②口

④⑤④⑤
口口口口
⑥口⑥口 |④-⑤-|
口⑦口⑦ |⑥-⑦-|
40
②口③② |①---|
③①口口 |②-③-|
口口口①
口口口口

口口口口
口⑥⑥口
口口⑤口 |--④-|
④口④口 |⑤-⑥-|
41
口口口④ |①--②|
口口口① |③-④-|
口口口③
口口口②

⑥口⑥口
口⑦⑤⑦
口口口口 |⑤-⑥-|
⑧口⑧口 |⑦-⑧-|
42
③口口① |①---|
①口口③ |②-③-|
口②口②
口口口口

口口口⑥
⑥口口口
口口⑦口 |④-⑤-|
口口⑤④ |⑥-⑦-|
43
②口②口 |①---|
口口口① |②---|
口口口口
口口口口

口口口口
⑥③③⑤
④口口④ |③-④-|
⑤口口⑥ |⑤-⑥-|
44
③①①② |①---|
口口口口 |②-③-|
②口口③
口口口口

口口⑥口
口⑤④⑥
⑥④⑤口 |--④-|
口⑥口口 |⑤-⑥-|
45
④口口口 |①--②|
①口口口 |③-④-|
口口口③
口口口②

口口⑧⑧
⑧⑧⑤⑦
口口口口 |⑤-⑥-|
口⑥口口 |⑦-⑧-|
46
①①口④ |--①-|
③口⑥⑥ |--②-|
⑥⑥①① |③-④-|
口⑤口② |⑤-⑥-|
47
口口口口 |--①-|
①①口口 |--②-|
口口②口
口口①①

口⑥③口
⑥⑤口③
口④口口 |③-④-|
③口口⑥ |⑤-⑥-|
48
④口③口 |--①-|
口⑤②③ |②-③-|
口⑥①口 |--④-|
③口口口 |⑤-⑥-|
49
口①②③ |①--②|
①口口口 |③-④-|
口口口口
④口口①

⑨口口⑨
⑥⑦⑧口
⑤口口⑤ |⑤-⑥⑦|
口⑤⑤口 |⑧-⑨-|
50
口①口口 |----|
口口②口 |①-②-|
口口口口
口口口口

口⑥口④
⑥口口口
口③口⑤ |③-④-|
口口口口 |⑤-⑥-|
51
口口③④ |--①-|
口⑥口③ |②-③-|
口⑤①口 |--④-|
②口口口 |⑤-⑥-|
52
⑦①⑥④ |①-②-|
①⑦④⑥ |③-④-|
③⑤②⑧ |⑤-⑥-|
⑤③⑧② |⑦-⑧-|
53
口①口口 |①-②-|
①口③④ |③-④-|
口口②口
口口口②

口口口口
口⑥口口
⑥口⑥⑤ |⑤---|
口⑥口口 |⑥---|
54
⑨口口口 |①-②③|
①⑥②⑤ |④-⑤-|
⑩③⑦口 |⑥⑦⑧-|
口⑧④口 |⑨-⑩-|
55
口⑨口⑨ |①-②③|
⑤②⑥① |④-⑤-|
口⑦③⑩ |⑥⑦⑧-|
口④⑧口 |⑨-⑩-|
56
⑨口口口 |①-②③|
①⑥②⑤ |④-⑤-|
⑩③⑦口 |⑥⑦⑧-|
口⑧④口 |⑨-⑩-|
57
⑤口口口 |①-②③|
口②口① |④-⑤-|
口口③口
口④口口

口口口⑩
口⑪⑥口
⑨⑦⑫口 |⑥⑦⑧⑨|
口口⑧口 |⑩⑪⑫-|
58
⑨口口口 |①-②③|
①⑥②⑤ |④-⑤-|
⑩③⑦口 |⑥⑦⑧-|
口⑧④口 |⑨-⑩-|
59
口⑨口⑨ |①-②③|
⑤②⑥① |④-⑤-|
口⑦③⑩ |⑥⑦⑧-|
口④⑧口 |⑨-⑩-|
60
⑨口口口 |①-②③|
①⑥②⑤ |④-⑤-|
⑩③⑦口 |⑥⑦⑧-|
口⑧④口 |⑨-⑩-|
61
口口口口 |①-②③|
口②⑤① |④-⑤-|
口口③口
口④口口

⑨⑦⑫口
⑪⑫口⑫
口口⑫⑩ |⑥⑦⑧⑨|
口口⑥⑧ |⑩⑪⑫-|

不確定度: 0

最終更新:2017年07月30日 19:21