フラッター現象の顛末と単一指向性の感情論
日向美ビタースイーツ♪

BASIC

Level: 4
BPM: 206
Notes: 263

1
口口口口 |----|
口口口口 |----|
口口口口 |----|
口口口口 |----|
2
①②③④ |①---|
口口口口 |②---|
口口口口 |③---|
口口口口 |④---|
3
口口口口 |①---|
①②③口 |②---|
口口口口 |③---|
口口口口 |----|
4
口口口口 |①---|
口口口口 |②---|
④③②① |③---|
口口口口 |④---|
5
口口口口 |①---|
口口口口 |②---|
口口口口 |③---|
口③②① |----|
6
①②③④ |①---|
口口口口 |②---|
口口口口 |③---|
口口口口 |④---|
7
口口口口 |①---|
①②③口 |②---|
口口口口 |③---|
口口口口 |----|
8
口口口口 |①---|
口口口口 |②---|
④③②① |③---|
口口口口 |④---|
9
口口口口 |①---|
口②②口 |----|
口口口口 |----|
口口口① |--②-|
10
口口口口 |----|
口②②口 |----|
口口口口 |①---|
口口①口 |--②-|
11
口口口口 |----|
口口口口 |----|
②口口② |①---|
口①口口 |--②-|
12
②口口② |----|
①口口① |--①-|
口口口口 |----|
口口口口 |--②-|
13
口口口口 |----|
①②②① |--①-|
口口口口 |----|
口口口口 |--②-|
14
口口口口 |----|
口②②口 |----|
口口口口 |①---|
口口①口 |--②-|
15
口口口口 |----|
口口口口 |----|
②口口② |①---|
口①口口 |--②-|
16
②口口② |----|
①口口① |--①-|
口口口口 |----|
口口口口 |--②-|
17
口口口口 |----|
①口① |--①-|
口口口 |----|
口口口口 |--②-|
18
口口口口 |----|
口口口口 |----|
口口口 |----|
口口口口 |--①-|
19
口口口口 |----|
口口 |----|
口口 |----|
口口口口 |--①-|
20
口口口口 |----|
口口口口 |----|
口口 |----|
口口口口 |--①-|
21
口口口口 |----|
口口口 |----|
口口口 |----|
口口口口 |--①-|
22
口口口口 |----|
口口口 |----|
口口口口 |----|
口口口口 |--①-|
23
口口口口 |----|
口口口口 |----|
口①①口 |----|
口口口口 |--①-|
24
口口口口 |----|
①口口① |----|
口口口口 |----|
口口口口 |--①-|
25
口口口口 |----|
口口口口 |----|
①口口① |----|
口口口口 |--①-|
26
口口口口 |----|
口口①口 |----|
口口①口 |----|
口口口口 |--①-|
27
口口口口 |----|
口①口口 |----|
口①口口 |----|
口口口口 |--①-|
28
口口口口 |----|
口口口① |----|
口口口① |----|
口口口口 |--①-|
29
口口口口 |----|
①口口口 |----|
①口口口 |----|
口口口口 |--①-|
30
口口口口 |----|
口口口口 |----|
口口口口 |----|
口①①口 |--①-|
31
口口口口 |----|
口口口口 |----|
口①①口 |----|
口口口口 |--①-|
32
口口口口 |----|
口口口① |----|
口口口口 |----|
口口口口 |--①-|
33
口口口口 |----|
口②①口 |--①-|
口口口口 |----|
口口口口 |--②-|
34
口口口口 |----|
口口口口 |----|
口口口口 |----|
口口口口 |----|
35
口口口口 |①---|
口口①口 |----|
口口口口 |----|
口口口口 |----|
36
口口口口 |①---|
口口口口 |----|
口口①口 |----|
口口口口 |----|
37
口口口口 |--①-|
口口口口 |----|
口②②口 |--②-|
口①①口 |----|
38
口口口口 |----|
口口口口 |----|
口口口口 |①---|
口①①口 |----|
39
口口口口 |①---|
口口口口 |----|
口①①口 |----|
口口口口 |----|
40
口口口口 |①---|
②口口② |----|
①口口① |②---|
口口口口 |----|
41
①口口① |①---|
口口口口 |----|
口③②口 |②---|
口口口口 |③---|
42
口口口口 |①---|
④③②① |②---|
口口口口 |③---|
口口口口 |④---|
43
④③②① |①---|
口口口口 |②---|
口口口口 |③---|
口口口口 |④---|
44
口口口口 |①---|
口口②口 |----|
口①①口 |②---|
口口口口 |----|
45
口口①口 |①---|
口②口口 |②---|
口口③口 |③---|
口④口口 |④---|
46
口口口口 |①---|
口口口口 |----|
口口②口 |②---|
口口①口 |----|
47
口口②口 |①---|
口口①口 |----|
口口口口 |②---|
口口口口 |----|
48
口口口口 |①---|
①②③④ |②---|
口口口口 |③---|
口口口口 |④---|
49
口口口口 |----|
口口口口 |----|
口②①口 |①---|
口口口口 |②---|
50
口口口口 |①---|
④③②① |②---|
口口口口 |③---|
口口口口 |④---|
51
④③②① |①---|
口口口口 |②---|
口口口口 |③---|
口口口口 |④---|
52
口口口口 |①---|
口口②口 |----|
口①①口 |②---|
口口口口 |----|
53
口口①口 |①---|
口②口口 |②---|
口口③口 |③---|
口④口口 |④---|
54
口口口口 |①---|
口口口口 |----|
口口②口 |②---|
口口①口 |----|
55
口口②口 |①---|
口口①口 |----|
口口口口 |②---|
口口口口 |----|
56
口①口口 |①---|
口②口口 |----|
口口口口 |②---|
口口口口 |----|
57
口口口口 |①---|
口口口口 |----|
口①口口 |②---|
口②口口 |----|
58
口口口口 |①---|
口①①口 |----|
口口②口 |----|
口口口口 |--②-|
59
口口口口 |----|
口口口口 |----|
口①口口 |----|
口口口口 |--①-|
60
口口口口 |----|
口口口口 |----|
①口口口 |----|
口口口口 |--①-|
61
口口口口 |----|
口口口① |----|
口口口口 |----|
口口口口 |--①-|
62
口口口口 |----|
口口①口 |----|
口口口口 |----|
口口口口 |--①-|
63
口口口口 |----|
口①口口 |----|
口口口口 |----|
口口口口 |--①-|
64
口口口口 |----|
①口口口 |----|
口口口口 |----|
口口口口 |--①-|
65
口口口口 |----|
口口口口 |----|
口口口口 |----|
口口口口 |----|
66
口②①口 |①---|
口④③口 |②---|
口口口口 |③---|
口口口口 |④---|
67
口口口口 |①---|
口口口口 |②---|
口②①口 |③---|
口④③口 |④---|
68
口口口口 |①---|
口口口口 |②---|
④口口③ |③---|
②口口① |④---|
69
④口口③ |①---|
②口口① |②---|
口口口口 |③---|
口口口口 |④---|
70
口②①口 |①---|
口④③口 |②---|
口口口口 |③---|
口口口口 |④---|
71
口口口口 |①---|
口口口口 |②---|
口②①口 |③---|
口④③口 |④---|
72
口口口口 |①---|
口口口口 |②---|
④口口③ |③---|
②口口① |④---|
73
④口口③ |①---|
②口口① |②---|
口口口口 |③---|
口口口口 |④---|
74
口口①口 |①---|
口口口口 |----|
口口口口 |----|
口口口口 |----|
75
口口口口 |①---|
口①口口 |----|
口口口口 |----|
口口口口 |----|
76
口口口口 |①---|
口口口口 |----|
口口①口 |----|
口口口口 |----|
77
口口口口 |①---|
口口口口 |----|
口口口口 |----|
口①口口 |----|
78
口口口口 |①---|
口口口口 |----|
口口口口 |----|
口口①口 |----|
79
口口口口 |①---|
口口口口 |----|
口①口口 |----|
口口口口 |----|
80
口口口口 |①---|
②口口② |----|
①口口① |②---|
口口口口 |----|
81
①口口① |①---|
口口口口 |----|
口③②口 |②---|
口口口口 |③---|
82
口口口口 |①---|
④③②① |②---|
口口口口 |③---|
口口口口 |④---|
83
④③②① |①---|
口口口口 |②---|
口口口口 |③---|
口口口口 |④---|
84
口口口口 |①---|
口口②口 |----|
口①①口 |②---|
口口口口 |----|
85
口口①口 |①---|
口②口口 |②---|
口口③口 |③---|
口④口口 |④---|
86
口口口口 |①---|
口口口口 |----|
口口②口 |②---|
口口①口 |----|
87
口口②口 |①---|
口口①口 |----|
口口口口 |②---|
口口口口 |----|
88
口口口口 |①---|
①②③④ |②---|
口口口口 |③---|
口口口口 |④---|
89
口口口口 |----|
口口口口 |----|
口②①口 |①---|
口口口口 |②---|
90
口口口口 |①---|
④③②① |②---|
口口口口 |③---|
口口口口 |④---|
91
④③②① |①---|
口口口口 |②---|
口口口口 |③---|
口口口口 |④---|
92
口口口口 |①---|
口口②口 |----|
口①①口 |②---|
口口口口 |----|
93
口口①口 |①---|
口②口口 |②---|
口口③口 |③---|
口④口口 |④---|
94
口口口口 |①---|
口口口口 |----|
口口②口 |②---|
口口①口 |----|
95
口口②口 |①---|
口口①口 |----|
口口口口 |②---|
口口口口 |----|
96
口①口口 |①---|
口②口口 |----|
口口口口 |②---|
口口口口 |----|
97
口口口口 |①---|
口口口口 |----|
口①口口 |②---|
口②口口 |----|
98
口口口口 |①---|
口口②① |----|
口口口口 |----|
口口口口 |②---|
99
口口口口 |----|
口①口口 |----|
口口口口 |①---|
口口口口 |----|
100
口口口口 |①---|
口口口口 |----|
口口②① |----|
口口口口 |②---|
101
口口口口 |----|
口口口口 |----|
口①口口 |①---|
口口口口 |----|
102
口口口口 |①---|
口口②① |----|
口口口口 |----|
口口口口 |②---|
103
口口口口 |----|
口①口口 |----|
口口口口 |①---|
口口口口 |----|
104
口口 |①---|
口口 |----|
口口②① |----|
口口口口 |②-③-|
105
口口口口 |----|
口口口口 |----|
口口口口 |----|
口口口口 |----|
106
口口口口 |----|
口口口口 |----|
口口口口 |----|
口口口口 |----|
107
口口口口 |----|
口口口口 |----|
口口口口 |----|
口口口口 |----|
108
口口口口 |----|
口口口口 |----|
口口口口 |----|
口口口口 |----|
109
口口口口 |----|
口口口口 |----|
口口口口 |----|
口口口口 |----|
110
口口口口 |----|
口口口口 |----|
口口口口 |----|
口口口口 |----|
111
口口口口 |----|
口口口口 |----|
口口口口 |----|
口口口口 |----|
112
口口口口 |----|
口口口口 |----|
口口口口 |----|
口口口口 |----|
113
口口口口 |----|
口口口口 |----|
口口口口 |----|
口口口口 |----|
114
口口口口 |----|
口口口口 |----|
口口口口 |----|
口口口口 |----|
115
口口口口 |----|
口口口口 |----|
口口口口 |----|
口口口口 |----|
116
口口口口 |①---|
口口 |----|
口口口口 |----|
口口口口 |----|

不確定度: 0

最終更新:2016年07月27日 22:50