フラッター現象の顛末と単一指向性の感情論
日向美ビタースイーツ♪

ADVANCED

Level: 6
BPM: 206
Notes: 425

1
口口口口 |----|
口口口口 |----|
口口口口 |----|
口口口口 |----|
2
口口口口 |①---|
①④口② |②---|
口③口口 |③---|
口口口口 |④---|
3
口口口③ |①---|
口口②口 |②-③-|
口口①口 |----|
口口口口 |----|
4
口口口口 |①---|
①④口② |②---|
口③口口 |③---|
口口口口 |④---|
5
口口口口 |①---|
口④②口 |②---|
口③①口 |③---|
口口口口 |④---|
6
口口口口 |①---|
②口④① |②---|
口口③口 |③---|
口口口口 |④---|
7
③口口口 |①---|
口②口口 |②-③-|
口①口口 |----|
口口口口 |----|
8
口口口⑤ |①---|
②口④① |②---|
口口③口 |③---|
口口口口 |④-⑤-|
9
①口口① |----|
口口口口 |----|
口口口口 |----|
口口口口 |--①-|
10
④口口④ |----|
③口口② |①---|
口③②口 |②-③-|
①口口① |--④-|
11
④口口口 |----|
③口口② |①---|
口③②口 |②-③-|
①口口① |--④-|
12
口②口① |----|
口口口口 |--①-|
口口口口 |----|
口口口口 |--②-|
13
④口口④ |--①-|
口①口口 |--②-|
口②口口 |--③-|
口③口口 |--④-|
14
④口口④ |----|
②口口③ |①---|
口②③口 |②-③-|
①口口① |--④-|
15
口口口④ |----|
②口口③ |①---|
口②③口 |②-③-|
①口口① |--④-|
16
①口②口 |----|
口口口口 |--①-|
口口口口 |----|
口口口口 |--②-|
17
口口口口 |--①-|
口口①口 |--②-|
口口②口 |--③-|
④口③口 |--④-|
18
口口口 |----|
口口口 |--①-|
口①口口 |----|
口口口口 |--②-|
19
②口口③ |----|
口口口 |--①-|
口口口口 |--②-|
口口口口 |--③-|
20
口口口口 |--①-|
口①口 |②-③-|
口口② |--④-|
口③口④ |--⑤-|
21
口口口口 |----|
口②口口 |--①-|
口口③ |--②-|
口④口口 |③-④-|
22
口口口口 |----|
口口口 |--①-|
口口口 |----|
口口口① |--②-|
23
②口口③ |----|
口口口口 |--①-|
口口口 |--②-|
口口口口 |--③-|
24
口口口口 |----|
口①口口 |①---|
⑤④③② |②-③-|
口口口口 |④-⑤-|
25
口①①口 |----|
口口口口 |--①-|
口口口口 |----|
口②②口 |--②-|
26
口口① |----|
口口口 |----|
口口口口 |--①-|
口口口口 |--②-|
27
口口口 |----|
口口口口 |--①-|
口口③② |--②-|
口口口口 |--③-|
28
③口口② |--①-|
口口口口 |----|
口①口口 |--②-|
口口口口 |--③-|
29
口口口口 |--①-|
口③②① |②-③-|
口⑥⑤④ |--④-|
口口口口 |⑤-⑥-|
30
①口口口 |----|
②口口口 |--①-|
③口口口 |--②-|
口口口口 |--③-|
31
口口口口 |----|
口口口③ |--①-|
口口口② |--②-|
口口口① |--③-|
32
③口口① |--①-|
口口口口 |----|
口口口口 |--②-|
口②②口 |--③-|
33
口口口口 |--①-|
口口口① |--②-|
②口口口 |--③-|
④口口③ |--④-|
34
①口口② |----|
口口口口 |----|
口口口口 |①---|
口口口口 |②---|
35
口口口口 |①---|
②口口口 |--②-|
口①①口 |--③-|
口⑤④③ |④-⑤-|
36
口口口口 |----|
口口口口 |----|
①②③口 |①-②-|
口口口口 |③---|
37
口口口口 |①-②-|
③口②① |--③-|
口口口口 |--④-|
⑤口④口 |--⑤-|
38
口口口① |----|
口口口② |----|
口口口口 |①---|
口口口口 |②---|
39
口口口口 |①---|
②③口口 |--②-|
口口口① |③---|
口④④口 |④---|
40
②口口① |①---|
口口口口 |----|
口口口口 |②---|
①口口② |----|
41
口③②口 |①---|
③①①② |----|
口口口口 |②---|
口口口口 |③---|
42
口口口口 |①---|
口口口口 |----|
口口 |----|
口口 |----|
43
口口口口 |----|
口口口口 |----|
口②②口 |①---|
①① |②---|
44
口口②口 |①---|
口①①口 |----|
口口口② |----|
口口口口 |②---|
45
口①④口 |①---|
③口口② |②---|
①口口④ |③---|
口③②口 |④---|
46
口口口口 |----|
口口口口 |----|
②口②口 |①---|
①口①口 |②---|
47
①口①口 |----|
口口口② |①---|
口口口口 |----|
口口②口 |②---|
48
口③②口 |①---|
①口口④ |②---|
③口口② |③---|
口①④口 |④---|
49
口①②口 |----|
①口口② |----|
口口口口 |①---|
口口口口 |②---|
50
口口口口 |①---|
口口口口 |----|
口口 |----|
口口 |----|
51
口口口口 |----|
口口口口 |----|
口②②口 |①---|
①① |②---|
52
②口口② |①---|
口①①口 |----|
口口口口 |----|
口口口口 |②---|
53
口口口口 |----|
口①①口 |①---|
口②②口 |②---|
口③③口 |③---|
54
口口口口 |----|
口②口② |----|
口①口① |①---|
口口口口 |②---|
55
①口①口 |----|
②口②口 |①---|
③口③口 |②---|
口口口口 |③---|
56
口口口口 |----|
口口口口 |----|
口口口口 |----|
口口口口 |----|
57
口口口口 |----|
口口口口 |----|
口口口口 |----|
口口口口 |----|
58
口口口口 |----|
口口口④ |①-②-|
口口口③ |--③-|
口②①口 |--④-|
59
②口口① |--①-|
口④③口 |----|
口口口口 |②---|
口口口口 |③-④-|
60
④口口口 |--①-|
③口口口 |--②-|
②口口口 |--③-|
①口口口 |--④-|
61
口①口口 |--①-|
口口口口 |----|
口口③口 |--②-|
口口②口 |--③-|
62
口口口口 |--①-|
口口①口 |----|
口③口口 |--②-|
口②口口 |--③-|
63
口口口口 |--①-|
口①口口 |----|
口口口口 |--②-|
③口口② |--③-|
64
口口口口 |----|
④口口③ |①-②-|
口②①口 |--③-|
口口口口 |--④-|
65
口口口口 |----|
口口口口 |----|
口口口口 |----|
口口口口 |----|
66
④口口② |①---|
口口口口 |②---|
口口口① |③---|
口③③口 |--④-|
67
⑥口①⑥ |--①-|
口②口口 |②-③-|
口口③口 |④-⑤-|
口④⑤口 |--⑥-|
68
口口口口 |----|
口③②口 |①---|
口口口口 |----|
①口口① |②-③-|
69
口口口口 |----|
口③②口 |①---|
口口口口 |----|
口①①口 |②-③-|
70
②口口① |--①-|
④口口③ |②-③-|
口⑥⑥⑤ |④-⑤-|
口口口口 |--⑥-|
71
②口口① |--①-|
④口口③ |②-③-|
口⑥⑥⑤ |④-⑤-|
口口口口 |--⑥-|
72
②口口① |--①-|
④口口③ |②-③-|
⑥口口⑤ |④-⑤-|
口口口⑦ |⑥-⑦-|
73
口②①口 |--①-|
口④③口 |②-③-|
口⑥⑤口 |④-⑤-|
口口⑦口 |⑥-⑦-|
74
①口口② |----|
口口口口 |----|
口口口口 |①---|
口口口口 |②---|
75
口口口口 |①---|
②口口口 |--②-|
口①①口 |--③-|
口⑤④③ |④-⑤-|
76
口口口口 |----|
口口口口 |----|
①②③④ |①-②-|
口口口口 |③-④-|
77
口口口口 |①-②-|
③口②① |--③-|
口口口口 |--④-|
⑤口④口 |--⑤-|
78
口口口① |----|
口口口② |----|
口口口口 |①---|
口口口口 |②---|
79
口口口口 |①---|
②口口口 |--②-|
口口口① |----|
口③③口 |③---|
80
②口口① |①---|
口口口口 |----|
口口口口 |②---|
①口口② |----|
81
口③②口 |①---|
③①①② |----|
口口口口 |②---|
口口口口 |③---|
82
口口口口 |①---|
口口口口 |----|
口口 |----|
口口 |----|
83
口口口口 |----|
口口口口 |----|
口②②口 |①---|
①① |②---|
84
①口口① |----|
口口口口 |----|
口口口口 |----|
口口口口 |①---|
85
口①②口 |----|
口③③口 |①---|
①口口② |②---|
口口口口 |③---|
86
口口口口 |----|
口口口口 |----|
②口②口 |①---|
①口①口 |②---|
87
①口①口 |----|
口口口口 |①---|
口口口口 |----|
②口口② |②---|
88
口②①口 |----|
口③③口 |①---|
②口口① |②---|
口口口口 |③---|
89
口①②口 |----|
①口口② |----|
口口口口 |①---|
口口口口 |②---|
90
口口口口 |①---|
口口口口 |----|
口口 |----|
口口 |----|
91
口口口口 |----|
口口口口 |----|
口②②口 |①---|
①① |②---|
92
①口口① |----|
口口口口 |----|
口口口口 |----|
口口口口 |①---|
93
口口口口 |----|
口①①口 |①---|
口②②口 |②---|
口③③口 |③---|
94
口口口口 |----|
口②口② |----|
口①口① |①---|
口口口口 |②---|
95
①口①口 |----|
②口②口 |①---|
③口③口 |②---|
口口口口 |③---|
96
口口口口 |----|
口口口口 |----|
口口口口 |----|
口口口口 |----|
97
口口口口 |----|
口口口口 |----|
口口口口 |----|
口口口口 |----|
98
口口口口 |①---|
口口口口 |②---|
口口口口 |③---|
④③②① |④---|
99
口口口口 |①---|
口口口口 |②---|
④③②① |③---|
口口口口 |④---|
100
口①口口 |①---|
口②口口 |②---|
口③口口 |③---|
口④口口 |④---|
101
口口①口 |①---|
口口②口 |②---|
口口③口 |③---|
口口④口 |④---|
102
口口口口 |①---|
①②③④ |②---|
口口口口 |③---|
口口口口 |④---|
103
①②③④ |①---|
口口口口 |②---|
口口口口 |③---|
口口口口 |④---|
104
口口④口 |①---|
③口 |②---|
②口 |③---|
口口①口 |④-⑤-|
105
口口口口 |----|
口口口口 |----|
口口口口 |----|
口口口口 |----|
106
口口口口 |----|
口口口口 |----|
口口口口 |----|
口口口口 |----|
107
口口口口 |----|
口口口口 |----|
口口口口 |----|
口口口口 |----|
108
口口口口 |----|
口口口口 |----|
口口口口 |----|
口口口口 |----|
109
口口口口 |----|
口口口口 |----|
口口口口 |----|
口口口口 |----|
110
口口口口 |----|
口口口口 |----|
口口口口 |----|
口口口口 |----|
111
口口口口 |----|
口口口口 |----|
口口口口 |----|
口口口口 |----|
112
口口口口 |----|
口口口口 |----|
口口口口 |----|
口口口口 |----|
113
口口口口 |----|
口口口口 |----|
口口口口 |----|
口口口口 |----|
114
口口口口 |----|
口口口口 |----|
口口口口 |----|
口口口口 |----|
115
口口口口 |----|
口口口口 |----|
口口口口 |----|
口口口口 |----|
116
口口口口 |①---|
口口 |----|
口口口口 |----|
口口口口 |----|

不確定度: 0

最終更新:2016年07月27日 22:49