フラッター現象の顛末と単一指向性の感情論
日向美ビタースイーツ♪

EXTREME

Level: 9
BPM: 206
Notes: 690

1
口口口口 |----|
口口口口 |----|
口口口口 |----|
口口口口 |----|
2
①口口口 |①-②-|
口口⑧⑦ |③-④-|
口口⑥⑤ |⑤-⑥-|
②口④③ |⑦-⑧-|
3
口口②① |①-②-|
口⑤口⑥ |③-④-|
口口口口 |--⑤-|
口④口③ |⑥---|
4
①口口口 |①-②-|
口⑧口⑦ |③-④-|
口口⑥⑤ |⑤-⑥-|
②口④③ |⑦-⑧-|
5
口②口① |--①-|
口口口口 |②---|
口⑤④③ |③-④-|
口口口口 |⑤---|
6
①口口口 |①-②-|
口口⑧⑦ |③-④-|
口口⑥⑤ |⑤-⑥-|
②口④③ |⑦-⑧-|
7
口口②① |①-②-|
口⑤口⑥ |③-④-|
口口口口 |--⑤-|
口④口③ |⑥---|
8
①口口口 |①-②-|
口口⑧⑦ |③-④-|
口口⑥⑤ |⑤-⑥-|
②口④③ |⑦-⑧-|
9
口口⑤口 |----|
口口口⑤ |----|
口②①口 |--①②|
口④③口 |③④⑤-|
10
⑤④口① |--①-|
④⑤口口 |②---|
口口口口 |③-④-|
②口口③ |--⑤-|
11
口口④① |--①-|
口口口④ |②---|
②口口⑤ |③-④-|
③②⑤口 |--⑤-|
12
②口口口 |--①-|
③②④口 |--②-|
口④口口 |--③-|
口口口① |--④-|
13
③口④① |--①-|
口②口④ |--②-|
口口②口 |--③-|
①口口③ |--④-|
14
④⑤口口 |--①-|
⑤④口口 |②---|
口②口③ |③-④-|
口①③口 |--⑤-|
15
口口口① |--①-|
口口口② |②---|
口③④口 |③-④-|
③⑤⑤④ |--⑤-|
16
口口口③ |--①-|
口②②口 |--②-|
①④口口 |--③-|
口口口④ |--④-|
17
口②③口 |--①-|
口② |--②-|
①口 |--③-|
①口口口 |--④-|
18
口口口口 |----|
口口口 |--①-|

口口口口

口口口口
口口口
口口 |----|
口口口口 |--②-|
19
口口③口 |----|
口口口口 |--①-|
口口口 |--②-|
口②口口 |--③-|
20
口口口 |--①-|
③④口 |②-③-|
口①②口 |--④-|
口口口口 |--⑤-|
21
口口 |----|
口 |--①-|
口③口口 |--②-|
口②口口 |③-④-|
22
口口口 |----|
口 |--①-|
口口口口
口口口口

口口口
口口
口口口口 |----|
口口口口 |--②-|
23
口口 |----|
口口口 |--①-|
口口口口 |--②-|
口口口② |--③-|
24
口②口 |----|
口③①口 |①---|
口口④口 |②-③-|
口口 |④-⑤-|
25
口口口口 |----|
口口口口 |--①-|
口口口口


口口口口
口口口口
口口 |----|
口口口 |--②-|
26
口②口② |----|
口口口口 |--①-|
口 |--②-|
口 |--③-|
27
口口口口 |----|
口口口口 |--①-|
口口口口 |--②-|
② |--③-|
28
口口①③ |--①-|
口口口① |----|
口口口口 |--②-|
②口口口 |--③-|
29
④⑤⑥口 |--①-|
口口⑥口 |②-③-|
口③口口 |--④-|
口③②① |⑤-⑥-|
30
口口③③ |----|
②口口口 |--①-|
口②口① |--②-|
口口①口 |--③-|
31
③口③口 |----|
②口口口 |--①-|
①口口② |--②-|
口口口① |--③-|
32
口口 |--①-|
口口口口 |----|
口口口口 |--②-|
①口①② |--③-|
33
口口口 |--①-|

口口口口
口口口口

口口口口
口口口 |--②-|

口口口口

口口口口
口口口口
口口 |--③-|
口口

口口口口
口口口口
口口口口
|--④-|
34
口口口口 |----|
口口口口 |①---|
口口③口 |②---|
口②口 |③---|
35
①②①② |①---|
口③口口 |--②-|
口④口口 |--③-|
口⑤口口 |④-⑤-|
36
口口口口 |----|
口口口口 |----|
口口口口 |①-②-|
②口③① |③---|
37
口②口② |①-②-|
口④①④ |--③-|
③口③口 |--④-|
⑤口⑤口 |--⑤-|
38
口口口口 |----|
口口口口 |----|
口口②口 |①---|
口①口口 |②---|
39
口③口② |①---|
③①②口 |--②-|
口口口口 |③---|
④口口④ |④---|
40
口口口口 |①---|
口口口口 |----|
口口
口口

口口
口口
口口口 |②---|
口口口口 |----|
41
口口口① |①---|
口口 |----|
口口口口 |②---|
①②③口 |③---|
42
口② |①---|
口口 |②---|
⑤④③ |③-④-|
口口口口 |⑤---|
43
口② |①---|
口口① |②---|
口口口口 |③-④-|
口⑤④③ |⑤---|
44
口口口口 |①---|

口口
口口口口

⑥口口④
口口⑤ |②-③-|
②口口 |④-⑤-|
③口口口 |⑥---|
45
口口 |①---|

口口
口口


口 |②---|

口口

口口
口口口
口口 |③---|


口口口
口口口
口口口
口 |④---|
46
口口 |①---|
③口口 |②---|
②口 |③---|
口① |④---|
47
口口② |①---|
口口口① |②---|
口口② |③---|
③口 |④---|
48
口口口口 |①---|
口口口口

口口口

口口口口
口 |②---|
口口
口口口口

口口
口口
口口口口 |③---|
口口口口


口口口口
口口口口
口口口口 |④---|
49
⑧口⑥ |①-②-|
口口口口 |③-④-|
口⑦口⑤ |⑤-⑥-|
①②③④ |⑦-⑧-|
50
口② |①---|
口口 |②---|
⑤④③ |③-④-|
口口口口 |⑤---|
51
口② |①---|
口口① |②---|
口口口口 |③-④-|
口⑤④③ |⑤---|
52
口口口口 |①---|

口口
口口口口


口口⑤ |②-③-|
②口口 |④-⑤-|
③口口口 |⑥---|
53
口口口 |----|
口口口口 |①---|

口口口口

口口口口
口口口口
口口口 |②---|
口口

口口口口
口口口口
口口口口
|③---|
54
口① |①---|
③口口口 |②---|
口口 |③---|
口②口 |④---|
55
口口① |----|
口口①② |①---|
口②口 |②---|
口口口口

口口口口
口口口口

口 |③---|
56
口口口口 |①-②-|
①②⑦口 |③-④-|
③④口 |⑤-⑥-|
⑤⑥口 |⑦---|
57
①⑤④③ |①---|
⑨口口⑧ |②-③④|
②⑦⑥口 |⑤-⑥⑦|
⑪口口⑩ |⑧⑨⑩⑪|
58
口口口④ |①---|
口②③⑤ |②-③-|
口口口① |--④-|
口口口口 |--⑤-|
59
②口口口 |--①-|
口口口口 |----|
口④③① |②---|
口口口口 |③-④-|
60
口口口④ |--①-|
口口口③ |--②-|
口口口② |--③-|
口口口① |--④-|
61
口口③口 |--①-|
口口口③ |----|
②口口口 |--②-|
口②口① |--③-|
62
口③口口 |--①-|
③①口口 |----|
口口①② |--②-|
口口②口 |--③-|
63
口③②口 |--①-|
口口①口 |----|
③①口② |--②-|
口口口口 |--③-|
64
④口口口 |----|
③口口口 |①-②-|
口②①口 |--③-|
口口口口 |--④-|
65
⑪⑦⑩口 |--①②|
口⑨口⑧ |③--④|
④⑤口⑥ |⑤-⑥⑦|
①②③口 |⑧⑨⑩⑪|
66
口口⑤口 |①---|
④口④⑤ |②---|
口③口口 |③-④-|
②口②① |--⑤-|
67
①⑥口⑤ |--①-|
⑥②口口 |②-③-|
口口③口 |④-⑤-|
口口口④ |--⑥-|
68
③口口④ |--①-|
口口口口 |②---|
口④③口 |--③-|
口①②口 |--④-|
69
口口口口 |--①-|
口④③口 |②---|
口⑥⑤口 |--③④|
①⑧⑦② |⑤⑥⑦⑧|
70
②⑥①③ |①-②-|
⑥口口① |③-④-|
口口口⑦ |⑤-⑥-|
④口⑦⑤ |--⑦-|
71
口口口口 |--①-|
口③④口 |②-③-|
⑤①②口 |④-⑤-|
⑥⑤口⑥ |--⑥-|
72
④口⑥② |--①-|
③口⑤① |②-③-|
口口口口 |④-⑤-|
⑦口口⑦ |⑥-⑦-|
73
⑥②口④ |--①-|
⑤①⑦③ |②-③-|
口口口口 |④-⑤-|
口口口口 |⑥-⑦-|
74
口口口口 |----|
口口口口 |----|
口口②① |①---|
口口口口 |②---|
75
③口口口 |①---|
④口口口 |--②-|
⑤①口口 |--③-|
②口口② |④-⑤-|
76
口④口口 |----|
口口③口 |----|
口②口口 |①-②-|
口口①口 |③-④-|
77
口口①口 |①-②-|
⑤②口④ |--③-|
口⑤④口 |--④-|
③口口③ |--⑤-|
78
口口口口 |----|
口口②口 |----|
口口口① |①---|
口口口口 |②---|
79
口①口② |①---|
口口口口 |--②-|
口口口口 |----|
口口口③ |③---|
80
口口口口 |①---|
口口口口 |----|
②②口口 |②---|
①口口口 |----|
81
口口口口 |①---|
①①①口 |----|
口口口口 |②---|
口②③口 |③---|
82
⑫⑧①口 |①-②-③-|
口④⑨⑦ |④-⑤-⑥-|
②口⑤⑪ |⑦-⑧-⑨-|
⑥⑩口③ |⑩-⑪-⑫-|
83
口⑧⑦① |①-②-③-|
⑧④口⑦ |④-⑤-⑥-|
口②⑤口 |⑦---|
⑥口口③ |⑧---|
84
②②口口 |①---|
口口口口 |----|
口口口口 |----|
口①①口 |②---|
85
口口口口 |----|
口口①口 |①---|
口②口口 |②---|
口口③口 |③---|
86
①① |①-②-|
⑤口④口 |③-④-|
②③ |⑤---|
①①口口 |⑥---|
87
口口② |①---|
口口口① |②---|
口口② |③---|
③口 |④---|
88
口口口口 |①---|
口 |②---|
口口①口
口口口

口口
口口
口口口口 |③---|
口口口口


口口口口
口口口口
口口口口 |④---|
89
⑧口⑥ |①-②-|
口口口口 |③-④-|
口⑦口⑤ |⑤-⑥-|
①②③④ |⑦-⑧-|
90
口② |①---|
口口 |②---|
⑤④③ |③-④-|
口口口口 |⑤---|
91
口② |①---|
口口① |②---|
口口口口 |③-④-|
口⑤④③ |⑤---|
92
口口口口 |①---|

口口
口口口口

⑥口口④
口口⑤ |②-③-|
②口口 |④-⑤-|
③口口口 |⑥---|
93
口口 |①---|

口口
口口


口 |②---|

口口

口口
口口口
口口 |③---|


口口口
口口口
口口口
口 |④---|
94
口口 |①---|
③口口 |②---|
②口 |③---|
口① |④---|
95
口口② |①---|
口口②③ |②---|
口③口 |③---|
口口口①

口口口口
口口口口

口 |④---|
96
口口口口 |①-②-|
①②⑦口 |③-④-|
③④口 |⑤-⑥-|
⑤⑥口 |⑦---|
97
①⑤④③ |①---|
⑨口口⑧ |②-③④|
②⑦⑥口 |⑤-⑥⑦|
⑪口口⑩ |⑧⑨⑩⑪|
98
④口口口 |①-②-|
口③②口 |③-④-|
⑤⑥口① |⑤-⑥-|
口口⑦⑧ |⑦-⑧-|
99
口口②① |①-②-|
④③口⑧ |③-④-|
口⑥⑦口 |⑤-⑥-|
⑤口口口 |⑦-⑧-|
100
口①②口 |①-②-|
口③④口 |③-④-|
⑤口口⑥ |⑤-⑥-|
⑦口口⑧ |⑦-⑧-|
101
⑦口口⑧ |①-②-|
⑤口口⑥ |③-④-|
口③④口 |⑤-⑥-|
口①②口 |⑦-⑧-|
102
口口④口 |①-②-|
口⑥③口 |③-④-|
②⑤口⑧ |⑤-⑥-|
①口口⑦ |⑦-⑧-|
103
②口⑧口 |①-②-|
①口⑦口 |③-④-|
口⑥④口 |⑤-⑥-|
口⑤③口 |⑦-⑧-|
104
口口口② |①-②-|
③口口口 |③-④-|
①口口口
口口口④

⑦口口口
口口口⑥
|⑤-⑥-|
⑤口口口 |⑦-⑧-|
105
口口口口 |----|
口口口口 |----|
口口口口 |----|
口口口口 |----|
106
口口口口 |----|
口口口口 |----|
口口口口 |----|
口口口口 |----|
107
口口口口 |----|
口口口口 |----|
口口口口 |----|
口口口口 |----|
108
口口口口 |----|
口口口口 |----|
口口口口 |----|
口口口口 |----|
109
口口口口 |----|
口口口口 |----|
口口口口 |----|
口口口口 |----|
110
口口口口 |----|
口口口口 |----|
口口口口 |----|
口口口口 |----|
111
口口口口 |----|
口口口口 |----|
口口口口 |----|
口口口口 |----|
112
口口口口 |----|
口口口口 |----|
口口口口 |----|
口口口口 |----|
113
口口口口 |----|
口口口口 |----|
口口口口 |----|
口口口口 |----|
114
口口口口 |----|
口口口口 |----|
口口口口 |----|
口口口口 |----|
115
口口口口 |----|
口口口口 |----|
口口口口 |----|
口口口口 |----|
116
口口口口 |①---|
口口口口 |----|
口口口 |----|
口口口口 |----|

不確定度: 0

最終更新:2016年07月27日 22:49