3 A.M. ディテクティブ・ゲーム
日向美ビタースイーツ♪

BASIC

Level: 3
BPM: 162
Notes: 310

1
口口口口 |----|
口口口口 |----|
口口口口 |----|
口口口口 |----|
2
口口口口 |①---|
口口口口 |----|
口①①口 |----|
口口口口 |----|
3
口口口口 |①---|
②口口② |----|
口口口口 |②---|
口①①口 |----|
4
口口口口 |①---|
口口口口 |----|
口①①口 |----|
口口口口 |----|
5
③口口③ |①---|
②口口② |----|
口口口口 |②---|
口①①口 |③---|
6
口口口口 |①---|
口口口口 |----|
口①①口 |----|
口口口口 |----|
7
口口口口 |①---|
②口口② |----|
口口口口 |②---|
口①①口 |----|
8
口口口口 |①---|
口口口口 |----|
口①①口 |----|
口口口口 |----|
9
③口口③ |①---|
②口口② |----|
口口口口 |②---|
口①①口 |③---|
10
口①①口 |①---|
口口口口 |----|
口口口口 |----|
口口口口 |----|
11
口口口口 |①---|
口①①口 |----|
口口口口 |----|
口口口口 |----|
12
口口口口 |①---|
口口口口 |----|
口①①口 |----|
口口口口 |----|
13
口口口口 |①---|
口口口口 |----|
口口口口 |----|
口①①口 |----|
14
口口口口 |①---|
口口口口 |----|
口口口口 |----|
①口口① |----|
15
口口口口 |①---|
口口口口 |----|
①口口① |----|
口口口口 |----|
16
口口口口 |①---|
①口口① |----|
口口口口 |----|
口口口口 |----|
17
①口口① |①---|
口口口口 |----|
口口口口 |----|
口口口口 |----|
18
口口口口 |①---|
口③②① |②---|
口口口口 |③---|
口口口口 |----|
19
口口口口 |①---|
口口口口 |②---|
①②③口 |③---|
口口口口 |----|
20
口口口口 |①---|
口口口口 |②---|
口口口口 |③---|
口③②① |----|
21
口口口口 |①---|
口①①口 |----|
口②②口 |②---|
口口口口 |----|
22
口口口口 |①---|
①②③口 |②---|
口口口口 |③---|
口口口口 |----|
23
口口口口 |①---|
口口口口 |②---|
口③②① |③---|
口口口口 |----|
24
口口口口 |①---|
口口口口 |②---|
口口口口 |③---|
①②③口 |----|
25
口口口口 |①---|
口①①口 |----|
口②②口 |②---|
口口口口 |----|
26
口口口① |①---|
口口口② |②---|
口口口③ |③---|
口口口④ |④---|
27
口口口口 |①---|
口口口口 |②---|
口口口口 |③---|
③②①口 |----|
28
①口口口 |①---|
②口口口 |②---|
③口口口 |③---|
④口口口 |④---|
29
口口口口 |①---|
口口口口 |②---|
口口口口 |③---|
口①②③ |----|
30
口口口口 |①---|
④③②① |②---|
口口口口 |③---|
口口口口 |④---|
31
②③③② |①---|
口口口口 |--②-|
口①①口 |--③-|
口口口口 |----|
32
口口口口 |①---|
②口口① |②---|
④口口③ |③---|
口口口口 |④---|
33
②③③② |①---|
口口口口 |--②-|
口口口口 |--③-|
口①①口 |----|
34
口口口口 |①---|
②口口① |②---|
④口口③ |③---|
口口口口 |④---|
35
②③③② |①---|
口口口口 |--②-|
口口口口 |--③-|
口①①口 |----|
36
口口口口 |①---|
①③②① |--②-|
口②③口 |--③-|
口口口口 |----|
37
口口口口 |①---|
口②③口 |--②-|
①③②① |--③-|
口口口口 |----|
38
②口口② |①---|
口口口口 |--②-|
口口口口 |----|
口①①口 |----|
39
②②②② |①---|
口口口口 |--②-|
口口口口 |----|
口①①口 |----|
40
口口口口 |①---|
②口口① |②---|
④口口③ |③---|
口口口口 |④---|
41
②③③② |①---|
口口口口 |--②-|
口口口口 |--③-|
口①①口 |----|
42
口口口口 |①---|
②口口① |②---|
④口口③ |③---|
口口口口 |④---|
43
②③③② |①---|
口口口口 |--②-|
口口口口 |--③-|
口①①口 |----|
44
口口口口 |①---|
①③②① |--②-|
口②③口 |--③-|
口口口口 |----|
45
口口口口 |①---|
口②③口 |--②-|
①③②① |--③-|
口口口口 |----|
46
②口口② |①---|
口口口口 |--②-|
口口口口
口①①口

口口口口
口口口口
口口口口 |----|
口③③口 |③---|
47
①口口① |--①-|
口②②口 |----|
口③③口 |②---|
口口口口 |③---|
48
口口口口 |①---|
口口口口 |----|
口口口口 |----|
口①①口 |----|
49
口口口口 |①---|
①口口① |----|
口口口口 |----|
口口口口 |----|
50
口口口口 |①---|
口口口口 |----|
①口口① |----|
口口口口 |----|
51
口口口口 |①---|
口口口口 |----|
口口口口 |----|
①口口① |----|
52
口②①口 |①---|
口④③口 |②---|
口口口口 |③---|
口口口口 |④---|
53
口口口口 |①---|
口口口口 |②---|
口②①口 |③---|
口④③口 |④---|
54
口口口口 |①---|
口口口口 |②---|
④口口③ |③---|
②口口① |④---|
55
口③③口 |①---|
②口口① |②---|
口口口口 |③---|
口口口口 |----|
56
口口口口 |①---|
口口口① |----|
口口②口 |②---|
口口口口 |----|
57
口口口口 |①---|
口①口口 |----|
②口口口 |②---|
口口口口 |----|
58
口口口口 |①---|
①口口口 |----|
口②口口 |②---|
口口口口 |----|
59
口口口口 |①---|
口口①口 |----|
口口口② |②---|
口口口口 |----|
60
口口口口 |①---|
口口口口 |----|
口口口口 |----|
①口口① |----|
61
口口口口 |①---|
口口口口 |----|
①口口① |----|
口口口口 |----|
62
口口口口 |①---|
①口口① |----|
口口口口 |----|
口口口口 |----|
63
②②②② |①---|
口口口口 |--②---|
口①①口 |----|
口口口口 |----|
64
口口口口 |①---|
②口口① |②---|
④口口③ |③---|
口口口口 |④---|
65
②③③② |①---|
口口口口 |--②-|
口口口口 |--③-|
口①①口 |----|
66
口口口口 |①---|
②口口① |②---|
④口口③ |③---|
口口口口 |④---|
67
②③③② |①---|
口口口口 |--②-|
口口口口 |--③-|
口①①口 |----|
68
口口口口 |①---|
①③②① |--②-|
口②③口 |--③-|
口口口口 |----|
69
口口口口 |①---|
口②③口 |--②-|
①③②① |--③-|
口口口口 |----|
70
②口口② |①---|
口口口口 |--②-|
口口口口
口①①口

口口口口
口口口口
口口口口 |----|
口③③口 |③---|
71
①③③① |--①-|
口口口口 |----|
②口口② |②---|
口口口口 |③---|
72
口口口口 |①---|
口口口口 |----|
口①①口 |----|
口口口口 |----|
73
口口口口 |①---|
②口口② |----|
口口口口 |②---|
口①①口 |----|
74
口口口口 |①---|
口口口口 |----|
口①①口 |----|
口口口口 |----|
75
③口口③ |①---|
②口口② |----|
口口口口 |②---|
口①①口 |③---|
76
口口口口 |①---|
口口口口 |----|
口①①口 |----|
口口口口 |----|
77
口口口口 |①---|
②口口② |----|
口口口口 |②---|
口①①口 |----|
78
口口口口 |①---|
口口口口 |----|
口①①口 |----|
口口口口 |----|
79
③口口③ |①---|
②口口② |----|
口口口口 |②---|
口①①口 |③---|
80
口③③口 |①---|
②口口② |--②-|
口①①口 |----|
口口口口 |③---|
81
③③③③ |--①-|
口口口口 |----|
①②②① |②---|
口口口口 |--③-|

不確定度: 0

最終更新:2016年07月27日 22:48