雪女
かねこちはる

BASIC

Level: 5
BPM: 200
Notes: 318

1
口口口口 |----|
口口口口 |----|
口口口口 |----|
口口口口 |----|
2
口口口口 |----|
口口口口 |----|
口口口口 |----|
口口口口 |----|
3
①①口口 |①---|
口口口口 |----|
口口口口 |----|
口口口口 |----|
4
口口口口 |----|
口口口口 |----|
口口口口 |----|
口口口口 |----|
5
口口口口 |①---|
口口口口 |----|
口口口口 |----|
口口①① |----|
6
口口口口 |----|
口口口口 |----|
口口口口 |----|
口口口口 |----|
7
口口①① |①---|
口口口口 |----|
口口口口 |----|
口口口口 |----|
8
口口口口 |----|
口口口口 |----|
口口口口 |----|
口口口口 |----|
9
口口口口 |①---|
口口口口 |----|
口口口口 |----|
①①口口 |----|
10
口口口口 |----|
口口口口 |----|
口口口口 |----|
口口口口 |----|
11
①①口口 |①---|
口②口口 |----|
口口口口 |②---|
口口口口 |----|
12
口口口口 |①---|
口口口口 |----|
口①口口 |②---|
口②口口 |----|
13
口口口口 |①---|
口口口口 |----|
口口②口 |②---|
口口①① |----|
14
口口②口 |①---|
口口①口 |----|
口口口口 |②---|
口口口口 |----|
15
口口口口 |①---|
口口口口 |----|
口口②口 |②---|
口口①① |----|
16
口口②口 |①---|
口口①口 |----|
口口口口 |②---|
口口口口 |----|
17
①①口口 |①---|
口②口口 |----|
口口口口 |②---|
口口口口 |----|
18
口口口口 |①---|
口口口口 |----|
口①口口 |②---|
口②口口 |----|
19
④③②① |①---|
口口口口 |②---|
口口口口 |③---|
口口口口 |④---|
20
口口口口 |①---|
口④①口 |②---|
口②③口 |③---|
口口口口 |④---|
21
口口口口 |①---|
口口口口 |②---|
口口口口 |③---|
①②③④ |④---|
22
口口口口 |①---|
口①④口 |②---|
口③②口 |③---|
口口口口 |④---|
23
口口口② |①---|
口口口口 |----|
口口口口 |②---|
①①口口 |----|
24
口口口口 |①---|
口口口口 |②---|
口口口口 |③---|
④③②① |④---|
25
口口口口 |①---|
②②①① |----|
口口口口 |②---|
口口口口 |----|
26
口口口口 |①---|
口④②口 |②---|
口口口口 |③---|
口③①口 |④---|
27
④③②① |①---|
口口口口 |②---|
口口口口 |③---|
口口口口 |④---|
28
口口口口 |①---|
口④①口 |②---|
口②③口 |③---|
口口口口 |④---|
29
口口口口 |①---|
口口口口 |②---|
口口口口 |③---|
①②③④ |④---|
30
口口口口 |①---|
口①④口 |②---|
口③②口 |③---|
口口口口 |④---|
31
①①口口 |①---|
口②口口 |②---|
口口③口 |③---|
口口口④ |④---|
32
口口口④ |①---|
口口③口 |②---|
口②口口 |③---|
①口口口 |④---|
33
①①口口 |①---|
口口口口 |----|
口口口口 |②---|
口口②② |----|
34
口口口口 |①---|
①③④② |②---|
①③④② |③---|
口口口口 |④---|
35
口口口口 |①---|
口口口口 |----|
口口口口 |----|
口①①口 |----|
36
口口口口 |----|
口口口口 |----|
口口口口 |----|
口口口口 |----|
37
口口口口 |①---|
口口口口 |----|
口①①口 |----|
口口口口 |----|
38
口口口口 |----|
口口口口 |----|
口口口口 |----|
口口口口 |----|
39
口口口口 |①---|
口①①口 |----|
口口口口 |----|
口口口口 |----|
40
口口口口 |----|
口口口口 |----|
口口口口 |----|
口口口口 |----|
41
口①①口 |①---|
口口口口 |----|
口口口口 |----|
口口口口 |----|
42
口口口口 |----|
口口口口 |----|
口口口口 |----|
口口口口 |----|
43
①①口口 |①---|
口口②口 |②---|
口③口口 |③---|
口口④口 |④---|
44
口口口口 |①---|
④③口口 |②---|
口口②① |③---|
口口口口 |④---|
45
口④口口 |①---|
口口③口 |②---|
口②口口 |③---|
口口①① |④---|
46
口口口口 |①---|
①②口口 |②---|
口口③④ |③---|
口口口口 |④---|
47
①①②② |①---|
③③④④ |②---|
口口口口 |③---|
口口口口 |④---|
48
口口口口 |①---|
口口口口 |②---|
①①②② |③---|
③③④④ |④---|
49
口口口口 |①---|
口①①口 |----|
口口口口 |----|
口口口口 |----|
50
①口口② |①---|
口口口口 |----|
口口口口 |②---|
口口口口 |----|
51
口 |①---|
口 |----|
口 |----|
口 |----|
52
④口口④ |①---|
③口口③ |②---|
②口口② |③---|
① |④---|
53
口 |①---|
口 |----|
口 |----|
口 |----|
54
口口口口 |①---|
口④③口 |②---|
②口口② |③---|
① |④---|
55
口 |①---|
口 |----|
口 |----|
口 |----|
56
④口口④ |①---|
③口口③ |②---|
②口口② |③---|
① |④---|
57
口 |①---|
口 |----|
口 |----|
口 |----|
58
口口 |①---|
口口 |----|
口口 |----|
|----|
59
口口口口 |①---|
口口口口 |----|
口口口口 |----|
①口 |----|
60
口口口口 |①---|
口口口口 |----|
口口①口 |----|
口口口口 |----|
61
口口口口 |①---|
口①口口 |----|
口口口口 |----|
口口口口 |----|
62
口口①口 |①---|
口口口口 |----|
口口口口 |----|
口口口口 |----|
63
口口口口 |①---|
①口口口 |----|
口口口口 |----|
口口口口 |----|
64
口口口口 |①---|
口口口① |----|
口口口口 |----|
口口口口 |----|
65
口口口口 |①---|
口口口口 |----|
①口口口 |----|
口口口口 |----|
66
口口口口 |----|
口口口口 |----|
口口口口 |----|
口口口口 |----|
67
④③②① |①---|
口口口口 |②---|
口口口口 |③---|
口口口口 |④---|
68
口口口口 |①---|
口④①口 |②---|
口②③口 |③---|
口口口口 |④---|
69
口口口口 |①---|
口口口口 |②---|
口口口口 |③---|
①②③④ |④---|
70
口口口口 |①---|
口①④口 |②---|
口③②口 |③---|
口口口口 |④---|
71
口口口② |①---|
口口口口 |----|
口口口口 |②---|
①①口口 |----|
72
口口口口 |①---|
口口口口 |②---|
口口口口 |③---|
④③②① |④---|
73
口口口口 |①---|
②②①① |----|
口口口口 |②---|
口口口口 |----|
74
口口口口 |①---|
口④②口 |②---|
口口口口 |③---|
口③①口 |④---|
75
④③②① |①---|
口口口口 |②---|
口口口口 |③---|
口口口口 |④---|
76
口口口口 |①---|
口④①口 |②---|
口②③口 |③---|
口口口口 |④---|
77
口口口口 |①---|
口口口口 |②---|
口口口口 |③---|
①②③④ |④---|
78
口口口口 |①---|
口①④口 |②---|
口③②口 |③---|
口口口口 |④---|
79
①①口口 |①---|
口②口口 |②---|
口口③口 |③---|
口口口④ |④---|
80
口口口④ |①---|
口口③口 |②---|
口②口口 |③---|
①口口口 |④---|
81
①①口口 |①---|
口口口口 |----|
口口口口 |②---|
口口②② |----|
82
口口口口 |①---|
①③④② |②---|
①③④② |③---|
口口口口 |④---|
83
口②②口 |①---|
口口口口 |②---|
口口口口 |③---|
④①①③ |④---|
84
口口口口 |①---|
口③②口 |②---|
口④①口 |③---|
口口口口 |④---|
85
口②②口 |①---|
口口口口 |②---|
口口口口 |③---|
④①①③ |④---|
86
口口口口 |①---|
口口③口 |②---|
口③口口 |③---|
口②①口 |----|
87
②口口② |①---|
③口口④ |②---|
③口口④ |③---|
①口口① |④---|
88
口口口口 |①---|
口②③口 |②---|
口口口口 |③---|
口①④口 |④---|
89
②口口② |①---|
③口口④ |②---|
③口口④ |③---|
①口口① |④---|
90
口口口口 |①---|
口②③口 |②---|
口口口口 |③---|
口①④口 |④---|
91
③口口口 |①---|
口口口② |②---|
①口口口 |③---|
口口口口 |----|
92
口口口口 |--①-|
口③③口 |----|
口②②口 |②---|
口①①口 |--③-|
93
③①①③ |----|
口口口口 |①---|
口口口口 |--②-|
②口口② |--③-|

不確定度: 0

最終更新:2016年07月27日 22:41