Ready Go!!
荒牧陽子

EXTREME

Level: 8
BPM: 220
Notes: 530

1
口口口口 |----|
口口口口 |----|
口口口口 |----|
口口口口 |----|
2
①①口口 |①---|
口④口② |--②-|
口口口口 |--③-|
口③口口 |--④-|
3
口①口口 |①---|
口口口口 |--②-|
②口④口 |--③-|
口③口口 |--④-|
4
口④③② |①---|
①①口口 |--②-|
口口口口 |--③-|
口口口口 |--④-|
5
口口口口 |----|
口①②口 |----|
口③④口 |①-②-|
口口口口 |③-④-|
6
①①口口 |①---|
③口④② |--②-|
口口口口 |--③-|
口口口口 |--④-|
7
口口①口 |①---|
口口口口 |--②-|
②口④口 |--③-|
口③口口 |--④-|
8
口④③② |①---|
①①口口 |--②-|
口口口口 |--③-|
口口口口 |--④-|
9
口口口口 |----|
口①②口 |----|
口③④口 |①-②-|
口口口口 |③-④-|
10
②口③② |①---|
口④口口 |②---|
⑤口口口 |③-④-|
①口口① |⑤---|
11
口口口口 |①---|
口口②口 |②-③-|
口口口① |----|
③③口口 |----|
12
口口口口 |----|
①口②① |①---|
口③口口 |②-③-|
④口口⑤ |④-⑤-|
13
口口口① |①---|
口④④口 |②-③-|
口口口② |--④-|
口③③口 |----|
14
口口口口 |----|
口口口① |①-②-|
口口②口 |③---|
口③口④ |④---|
15
①口口④ |①-②-|
口②③⑤ |③-④-|
口口口口 |----|
口口口口 |--⑤-|
16
⑤口口⑥ |①-②-|
口⑦⑧口 |③-④-|
①③④口 |⑤-⑥-|
口口口② |⑦-⑧-|
17
⑥口口⑥ |①-②-|
⑤口口⑤ |③-④-|
④口口④ |--⑤-|
①②③口 |--⑥-|
18
口口口口 |①---|
口①①口 |--②-|
口口口口 |----|
口②③口 |--③-|
19
口③口口 |----|
①③②口 |--①-|
①口②口 |--②-|
口口口口 |--③-|
20
口口口① |①---|
口口口① |--②-|
口②③口 |----|
口口口口 |--③-|
21
口口口口 |----|
①口口口 |----|
①①口口 |--①-|
口口口口 |----|
22
口口口口 |①---|
口口①口 |--②-|
口口①① |----|
口②③口 |--③-|
23
口口口口 |----|
口②口② |--①-|
③口③口 |--②-|
口①口① |--③-|
24
①口①口 |①---|
口口口口 |--②-|
口②③口 |----|
口口口口 |--③-|
25
口口口口 |----|
口口口口 |----|
口③④口 |①-②-|
口①②口 |③-④-|
26
②口③② |①---|
①④口① |②---|
⑤口口口 |③-④-|
口口⑥口 |⑤-⑥-|
27
口口口口 |①-②-|
口口③口 |③-④-|
口②口① |----|
④④口口 |----|
28
①①口口 |----|
口口②口 |①---|
口③口口 |②-③-|
④口口口 |④---|
29
口口①① |①-②-|
口④④口 |--③-|
口口②② |--④-|
口③③口 |----|
30
口口口口 |----|
口口口① |①-②-|
口口②口 |③---|
口③口④ |④---|
31
①口口④ |①-②-|
口②③⑤ |③-④-|
口口口口 |----|
口口口口 |--⑤-|
32
⑤口口⑥ |①-②-|
口⑦⑧口 |③-④-|
①③④口 |⑤-⑥-|
口口口② |⑦-⑧-|
33
⑥口口⑥ |①-②-|
⑤口口⑤ |③-④-|
④口口④ |--⑤-|
①②③口 |--⑥-|
34
口口口口 |①---|
口①①口 |--②-|
口口口口 |----|
口②③口 |--③-|
35
①口②口 |----|
口①口② |--①-|
③口口口 |--②-|
③③口口 |--③-|
36
口口口口 |①---|
口②③口 |--②-|
口口①口 |----|
口口①① |--③-|
37
口①口口 |----|
①口口口 |----|
口①口口 |--①-|
口口口口 |----|
38
口口口口 |①---|
口口①口 |--②-|
口口③① |----|
口②①口 |--③-|
39
口①口② |----|
①口②口 |--①-|
口口口口 |--②-|
口③口③ |--③-|
40
口口口口 |①---|
口①口① |--②-|
口②口口 |----|
口口③口 |--③-|
41
口口口口 |----|
口②①口 |----|
口①②口 |----|
口口口口 |①-②-|
42
②口①口 |①---|
①口口口 |----|
口口口① |----|
口①口② |②---|
43
口口①口 |①---|
口口口① |----|
①②口② |----|
口①口口 |②---|
44
④口③口 |①-②-|
口⑦②口 |③-④-|
⑤口①口 |--⑤-|
口⑥口口 |⑥-⑦-|
45
口口口口 |①---|
口口③③ |--②-|
口口②② |----|
口口①① |③---|
46
①①口口 |①---|
口③②口 |----|
口②③口 |----|
口口口口 |②-③-|
47
口口口口 |①---|
口口口① |----|
①②口② |----|
口口口口 |②---|
48
④口③口 |①-②-|
口口②口 |③-④-|
⑤⑥①口 |----|
口口口口 |⑤-⑥-|
49
口口口口 |①---|
③④④③ |--②-|
口口②② |----|
口口①① |③-④-|
50
口①①口 |①---|
②口③口 |----|
口口口口 |----|
②口③口 |②-③-|
51
③①口② |①---|
口口口口 |----|
口①口口 |--②-|
口口口口 |--③-|
52
口⑤⑤口 |①-②-|
口⑥⑥口 |③-④-|
③③④④ |--⑤-|
①①②② |--⑥-|
53
①口口① |①---|
①口口① |----|
口③口口 |----|
口②口口 |②-③-|
54
①①口③ |①---|
口口口口 |②---|
口口口口 |③---|
口④口② |④---|
55
①①口口 |①---|
口口口③ |②---|
口口口口 |③---|
口④⑤② |④-⑤-|
56
口④④口 |①-②-|
口③③口 |③-④-|
①口口② |----|
⑤口口⑤ |⑤---|
57
口口口口 |①---|
①②②① |--②-|
口①①口 |----|
口③口口 |③---|
58
①①口③ |①---|
口口口口 |②---|
口⑤口口 |③---|
口④口② |④-⑤-|
59
①①口口 |①---|
④口口③ |②---|
口口口口 |③-④-|
⑤口口② |⑤---|
60
⑤⑥⑥⑤ |①-②-|
口③③口 |③-④-|
④④①① |--⑤-|
口②②口 |⑥---|
61
口口口口 |①---|
口口口口 |--②-|
②②②② |----|
①③④① |③-④-|
62
①①口③ |①---|
口口口口 |②---|
口口口口 |③---|
口④口② |④---|
63
①①口口 |①---|
口口口③ |②---|
口口口口 |③---|
口④⑤② |④-⑤-|
64
口④④口 |①-②-|
口③③口 |③-④-|
①口口② |----|
⑤口口⑤ |⑤---|
65
①口口① |①---|
①②②① |--②-|
口②②口 |----|
③口口③ |③---|
66
①①①① |①---|
②②口口 |----|
口口口口 |----|
②口口口 |②---|
67
口口口口 |①---|
口口①① |----|
口口口口 |----|
口②②① |②---|
68
①①①① |①---|
口口口口 |----|
②口口口 |----|
②②口口 |②---|
69
②②①① |①---|
②口口① |--②-|
口③③② |----|
口口②② |③---|
70
口③②口 |①---|
口①①口 |--②-|
口口口口 |----|
口口口口 |③---|
71
②口③① |①---|
口口口口 |--②-|
口口口口 |----|
口口口口 |③---|
72
口③口口 |①---|
①③口② |--②-|
口①②口 |--③-|
口口口口 |----|
73
口口口口 |----|
口口口口 |----|
口口口口 |----|
口口口口 |----|
74
①口⑤口 |①-②-|
②口⑥口 |③-④-|
③口⑦口 |⑤-⑥-|
④口⑧口 |⑦-⑧-|
75
口①口⑤ |①-②-|
口②口⑥ |③-④-|
口③口⑦ |⑤-⑥-|
口④口⑧ |⑦-⑧-|
76
口①⑦口 |①-②-|
口②口口 |③-④-|
口③⑥口 |⑤-⑥-|
口④⑤口 |⑦---|
77
①口口⑤ |①-②-|
②口口⑥ |③-④-|
③口口⑦ |⑤-⑥-|
④口口⑧ |⑦-⑧-|
78
口③④口 |①---|
⑤②①⑤ |--②-|
口①②口 |--③-|
口口口口 |④-⑤-|
79
口口口口 |--①-|
口口口口 |②---|
口口口口 |----|
口①②口 |----|
80
口口②② |①---|
①①口口 |----|
口口口② |②---|
①口口口 |----|
81
口口口口 |----|
口口口口 |----|
口口口口 |----|
口口口口 |----|
82
口①④口 |①-②-|
口②口口 |③-④-|
口③⑥口 |--⑤-|
口口⑤口 |⑥---|
83
口口口口 |----|
口口口口 |----|
①②④③ |①-②-|
口口口口 |③-④-|
84
口②口口 |①-②-|
①④③口 |③-④-|
口口口口 |--⑤-|
口⑤⑥口 |⑥---|
85
口口口口 |----|
口口口口 |----|
口口口口 |----|
口口口口 |----|
86
口口②③ |①-②-|
⑦口⑤⑥ |③-④-|
④口⑧口 |⑤-⑥-|
①口口口 |⑦-⑧-|
87
②口⑥⑦ |①-②-|
口⑧⑧口 |③-④-|
口⑧⑧① |⑤-⑥-|
⑤口③④ |⑦-⑧-|
88
口口口口 |----|
口口口口 |----|
口②②口 |-----①--|
口①①口 |---②----|
89
口①①口 |-①--|
①①①① |----|
口口口口 |----|
口口口口 |----|
90
①口口① |①-②-|
③口口③ |③-④-|
②⑥⑥② |--⑤-|
④⑤⑤④ |--⑥-|
91
①①①① |--①-|
②②②② |②---|
口口口口 |----|
口口口口 |----|


不确定度: 0

タグ:

+ タグ編集
  • タグ:

このサイトはreCAPTCHAによって保護されており、Googleの プライバシーポリシー利用規約 が適用されます。

最終更新:2012年11月10日 14:31