こんがらガール
Charisma.com

BASIC

Level: 2
BPM: 146
Notes: 182

1
口口口口 |----|
口口口口 |----|
口口口口 |----|
口口口口 |----|
2
口口口口 |----|
口口口口 |----|
口口口口 |----|
口口口口 |----|
3
口口口口 |----|
口口口口 |----|
口口口口 |----|
口口口口 |----|
4
口口口口 |①---|
②口口口 |----|
口①①口 |②---|
口口口口 |----|
5
口口口口 |①---|
口①②口 |----|
口口口口 |②---|
口口口口 |----|
6
口口口口 |①---|
口口口① |----|
口口口② |②---|
口口口口 |----|
7
口口口口 |①---|
口口口口 |----|
口②①口 |②---|
口口口口 |----|
8
口口口口 |①---|
口①①口 |----|
口口口② |②---|
口口口口 |----|
9
口口口口 |①---|
口口口口 |----|
口②①口 |②---|
口口口口 |----|
10
口口口口 |①---|
口口口口 |----|
①口口口 |②---|
②口口口 |----|
11
口口口口 |①---|
口口口口 |----|
口口口口 |②---|
口①②口 |----|
12
口口口口 |①---|
口口口口 |----|
口口口② |②---|
口口口① |----|
13
口口口② |①---|
口口口① |----|
口口口口 |②---|
口口口口 |----|
14
口口①口 |①---|
口口②口 |----|
口口口口 |②---|
口口口口 |----|
15
口口口口 |①---|
口口口口 |----|
口口①口 |②---|
口口②口 |----|
16
口口口口 |①---|
口口口口 |----|
口②口口 |②---|
口①口口 |----|
17
口②口口 |①---|
口①口口 |----|
口口口口 |②---|
口口口口 |----|
18
①口口口 |①---|
②口口口 |----|
口口口口 |②---|
口口口口 |----|
19
口口口口 |①---|
口口口口 |----|
①口口口 |②---|
②口口口 |----|
20
口口口口 |①---|
口口②口 |----|
口①①口 |②---|
口口口口 |----|
21
口口②口 |①---|
口①口口 |----|
口口口口 |②---|
口口口口 |----|
22
口①口② |①---|
口口口口 |----|
口口口口 |②---|
口口口口 |----|
23
①口口口 |①---|
口口口② |----|
口口口口 |②---|
口口口口 |----|
24
口口口口 |①---|
①口口口 |----|
口口口② |②---|
口口口口 |----|
25
口口口口 |①---|
口口口口 |----|
①口口口 |②---|
口口口② |----|
26
口口口口 |①---|
口口口口 |----|
口①口口 |②---|
口②②口 |----|
27
口口口口 |①---|
口口口口 |----|
口口①口 |②---|
口②②口 |----|
28
口口口口 |①---|
口口口口 |----|
口①②口 |②---|
口口口口 |----|
29
口口③口 |①---|
口②①口 |②---|
口口口口 |③---|
口口口口 |----|
30
口①②口 |①---|
口口口口 |----|
口口口口 |②---|
口口口口 |----|
31
口口口口 |①---|
口②①口 |②---|
口口③口 |③---|
口口口口 |----|
32
口口口口 |①---|
口口口口 |----|
口口口口 |②---|
口①②口 |----|
33
口口口口 |①---|
口口③口 |②---|
口②①口 |③---|
口口口口 |----|
34
口①①口 |①---|
口口口口 |----|
口口口口 |----|
口口口口 |----|
35
口口口口 |----|
口口口口 |----|
口口口口 |----|
口口口口 |----|
36
口口口口 |----|
口口口口 |----|
口口口口
口口口口
37
口口口口 |①---|
口口口口 |----|
口②②口 |②---|
口①①口 |----|
38
口口口口 |①---|
①②③④ |②---|
口口口口 |③---|
口口口口 |④---|
39
口①①口 |①---|
口②②口 |----|
口口口口 |②---|
口口口口 |----|
40
口口口口 |①---|
口口口口 |②---|
④③②① |③---|
口口口口 |④---|
41
口口口口 |①---|
口口口口 |----|
口②②口 |②---|
口①①口 |----|
42
口口③④ |①---|
①②口口 |②---|
口口口口 |③---|
口口口口 |④---|
43
口口口口 |①---|
口口口口 |----|
口②②口 |②---|
口①①口 |----|
44
口①①口 |①---|
口①①口 |----|
口口口口 |----|
口口口口 |----|
45
口①①口 |①---|
口②②口 |----|
口口口口 |②---|
口口口口 |----|
46
口口口口 |①---|
口口口口 |②---|
④③②① |③---|
口口口口 |④---|
47
口口口口 |①---|
口口口口 |----|
口②②口 |②---|
口①①口 |----|
48
口口口口 |①---|
①②③④ |②---|
口口口口 |③---|
口口口口 |④---|
49
口①①口 |①---|
口②②口 |----|
口口口口 |②---|
口口口口 |----|
50
口口口口 |①---|
口口口口 |②---|
口口②① |③---|
④③口口 |④---|
51
口①①口 |①---|
口②②口 |----|
口口口口 |②---|
口口口口 |----|
52
口口口口 |①---|
口口口口 |----|
口①①口 |----|
口①①口 |----|
53
口口口口 |①---|
口②口口 |----|
口①①口 |②---|
口口口口 |----|
54
口口口口 |①---|
口口①② |----|
口口口口 |②---|
口口口口 |----|
55
口口②口 |①---|
口①①口 |----|
口口口口 |②---|
口口口口 |----|
56
②①口口 |①---|
口口口口 |----|
口口口口 |②---|
口口口口 |----|
57
口口口口 |①---|
②①①口 |----|
口①①口 |②---|
口口口口 |----|
58
口口口口 |①---|
口①②口 |----|
口口口口 |②---|
口口口口 |----|
59
口口口口 |①---|
口口②口 |----|
口①①口 |②---|
口①①口 |----|
60
口①②口 |①---|
口口口口 |----|
口口口口 |②---|
口口口口 |----|
61
口口口口 |①---|
口口口① |----|
口口口② |②---|
口口口口 |----|
62
口口口口 |①---|
口口口口 |----|
口口口口 |②---|
口②①口 |----|
63
口口口口 |①---|
②口口口 |----|
①口口口 |②---|
口口口口 |----|
64
口①②口 |①---|
口口口口 |----|
口口口口 |②---|
口口口口 |----|
65
口口口口 |①---|
口口①口 |----|
口口②口 |②---|
口口口口 |----|
66
口口口口 |①---|
口②口口 |----|
口①口口 |②---|
口口口口 |----|
67
口①②口 |①---|
口口口口 |----|
口口口口 |②---|
口口口口 |----|
68
口口口口 |①---|
口口①口 |----|
口口②口 |②---|
口口口口 |----|
69
口①①口 |①---|
口①①口 |----|
口口口口 |----|
口口口口 |----|
70
口口口口 |----|
口口口口 |----|
口口口口 |----|
口口口口 |----|
71
口口口口 |①---|
口①①口 |----|
口①①口 |----|
口口口口 |----|

不確定度: 0

最終更新:2016年07月27日 22:28