こんがらガール
Charisma.com

ADVANCED

Level: 6
BPM: 146
Notes: 426

1
①口口口 |----|
口口口口 |----|
口口口口 |----|
口口口口 |--①-|
2
口口①口 |①-②-|
②口③口 |③-④-|
④⑧⑤口 |⑤-⑥-|
⑥口⑦口 |⑦-⑧-|
3
③口③① |①---|
口口口口 |②---|
②口②口 |③---|
口④口④ |④---|
4
口①口① |①---|
口口④口 |②---|
口③②口 |③---|
口口口口 |④---|
5
口口口口 |①---|
③①口② |②---|
口口口④ |③---|
口口口口 |④---|
6
口口口口 |①---|
口口④口 |②---|
①③②口 |③---|
口口口口 |④---|
7
口口口口 |①---|
③①口② |②---|
口口口口 |③---|
④口④口 |④---|
8
①口①口 |①---|
口口口口 |②---|
④②③口 |③---|
口口口口 |④---|
9
口口口口 |①---|
②④口③ |②---|
口口口① |③---|
口口口口 |④---|
10
口口口口 |①---|
口口①口 |②---|
④②③口 |③---|
口口口口 |④---|
11
口⑥⑤口 |①---|
②④③口 |②---|
口口口① |③-④-|
口口口口 |⑤-⑥-|
12
⑦⑥⑤④ |①-②-|
口口口③ |--③-|
口②②口 |④-⑤-|
口口口① |⑥-⑦-|
13
⑦口口⑥ |①-②-|
①口口口 |③-④-|
②口口⑤ |⑤-⑥-|
口③④口 |⑦---|
14
⑥口口⑦ |①---|
口①①口 |②-③-|
②④⑤③ |④-⑤-|
口口口口 |⑥-⑦-|
15
口①②口 |①-②-|
③⑤⑥④ |③-④-|
⑦口口⑧ |⑤-⑥-|
口口口口 |⑦-⑧-|
16
口②②口 |①-②-|
口口口口 |--③-|
口①口口
口口口③

口口口口
口④④口
⑤⑥口口 |④---|
口口口口 |⑤-⑥-|
17
口口⑤④ |①-②-|
口⑦⑥③ |③-④-|
口口①② |⑤-⑥-|
口口口口 |⑦---|
18
口口口口 |①-②-|
口口⑦口 |③-④-|
①口⑥口 |⑤---|
②③④⑤ |⑥-⑦-|
19
口口口口 |①-②-|
口①口口 |③---|
口②口口
口③口口

⑥口口口
⑤⑦⑦口
④口口口 |④-⑤-|
口口口口 |⑥-⑦-|
20
③口②② |--①-|
口口口④ |②---|
⑤口口口 |③-④-|
口口①⑥ |⑤-⑥-|
21
口③③口 |①---|
口①①口 |②-③-|
口口②口
口口口口

口口口口
口⑤口④
口口口⑥ |--④-|
口口口口 |⑤-⑥-|
22
口口口口 |①-②-|
口⑤⑤口 |③-④-|
⑥①口口 |⑤---|
口③④② |⑥---|
23
口口⑤③ |①-②-|
⑥④④② |③-④-|
口口⑦① |--⑤-|
口口口口 |⑥-⑦-|
24
口口口口 |①-②-|
口③③口 |③---|
⑦⑥⑤④ |④-⑤-|
①口②口 |⑥-⑦-|
25
④①①⑤ |①---|
②口口③ |②-③-|
口口口口 |--④-|
口口口口 |⑤---|
26
⑦口⑦口 |①-②-|
口①②口 |③-④-|
口③④口 |⑤-⑥-|
⑤口⑥口 |⑦---|
27
口⑦口⑦ |①-②-|
口②①口 |③-④-|
口④③口 |⑤-⑥-|
口⑥口⑤ |⑦---|
28
①口②口 |①-②-|
口③口口 |③---|
④口④口 |④---|
口④口口 |----|
29
口②口① |①-②-|
口④口③ |③-④-|
口口口口 |⑤---|
口⑤口⑥ |⑥---|
30
口口口口 |--①-|
⑦口口口 |②-③-|
⑥①②③ |④-⑤-|
口⑤④口 |⑥-⑦-|
31
口①②口 |①-②-|
口⑥⑤③ |③-④-|
口⑤⑥④ |⑤---|
口口口口 |⑥---|
32
口口口口 |①-②-|
⑧口口⑦ |③-④-|
⑥④口⑤ |⑤-⑥-|
口③②① |⑦-⑧-|
33
②④③① |①-②-|
口口⑤口 |③-④-|
口口口口 |⑤---|
口⑥口口 |⑥---|
34
③口口② |①---|
①①④口 |②---|
口口口口 |③---|
口口口口 |④---|
35
口口口口 |①-②-|
①口⑧口 |③-④-|
⑤⑦②④ |⑤-⑥-|
③口⑥口 |⑦-⑧-|
36
口口口口 |----|
口口口口 |----|
口口口口
口口口口
37
①①①① |①---|
口口口③ |②-③-|
口⑤④口 |--④-|
口口②口 |--⑤-|
38
口④口口 |--①-|
口口①口 |②-③-|
口⑤⑤口 |④---|
②口口③ |⑤---|
39
口口①① |①---|
②口③口 |②-③-|
口④口⑤ |--④-|
口口口口 |--⑤-|
40
口④④口 |--①-|
口②②口 |②---|
①口口口 |③---|
口③③口 |④---|
41
口⑤口口 |①---|
口口③口 |②-③-|
②口口① |--④-|
口④④口 |--⑤-|
42
④口③口 |--①-|
口②⑤口 |②-③-|
口⑤①口 |④---|
口口口口 |⑤---|
43
口①口② |①---|
①③③② |--②-|
②③③① |----|
②口①口 |③---|
44
口①①口 |①---|
④口③② |----|
口口口口 |--②-|
口①①口 |③-④-|
45
口①①口 |①---|
口口口③ |②-③-|
口⑤④口 |--④-|
口口②口 |--⑤-|
46
口④口口 |--①-|
口口①口 |②-③-|
口⑤⑤口 |④---|
②口口③ |⑤---|
47
口口①① |①---|
②口③口 |②-③-|
口④口⑤ |--④-|
口口口口 |--⑤-|
48
口④④口 |--①-|
口③②口 |②-③-|
①口口口 |----|
口口口口 |④---|
49
口⑤口口 |①---|
口口③口 |②-③-|
②口口① |--④-|
口④④口 |--⑤-|
50
④口③口 |--①-|
口②⑤口 |②-③-|
口⑤①口 |④---|
口口口口 |⑤---|
51
口①口② |①---|
①③③② |--②-|
②③③① |----|
②口①口 |③---|
52
口①①口 |①---|
口口口口 |----|
口口口口
口①①口

口口口口
口口口口
口口口口 |----|
口②口② |②---|
53
口①口① |①---|
口口口口 |②---|
口③②④ |③---|
口口口口 |④---|
54
口口口口 |①---|
③口口② |②---|
①口口口 |③---|
口④口④ |④---|
55
口①口① |①---|
口④口口 |②---|
口②③口 |③---|
口口口口 |④---|
56
口口口口 |①---|
②口①③ |②---|
口口口口 |③---|
口④口④ |④---|
57
口①口① |①---|
口口口口 |②---|
③口④② |③---|
口口口口 |④---|
58
口口口口 |①---|
口③②口 |②---|
口①口口 |③---|
口④口④ |④---|
59
口①口① |①---|
②口②口 |--②-|
口口口口 |----|
③口③口 |③---|
60
④③②口 |--①-|
口口口口 |----|
口①口① |②-③-|
口口口口 |④---|
61
口口口口 |①---|
口口口口 |②---|
口①①④ |③---|
口③②口 |④---|
62
口口口④ |①---|
口③口② |②---|
口①口口 |③---|
口口口口 |④---|
63
①①口口 |①---|
③口②口 |②---|
口口④口 |③---|
口口口口 |④---|
64
口口口口 |①---|
口口口口 |②---|
①口口口 |③---|
③口②④ |④---|
65
口口口② |①---|
口①①口 |②---|
口口口口
口口口口

③口口口
口口④口
口口口口 |③---|
口口口口 |④---|
66
口口口口 |①---|
口①口口 |②---|
③口口② |③---|
口口④口 |④---|
67
口④③口 |①---|
口②口口 |②---|
口①①口 |③---|
口口口口 |④---|
68
口口口口 |①---|
口口①口 |②---|
口②口口 |③---|
口④③口 |④---|
69
口②口③ |①---|
口口口口 |②---|
口口口口 |③---|
④口口① |--④-|
70
口口③口 |--①-|
④⑤口口 |--②-|
口②口口 |--③-|
口口①口 |--④⑤|
71
口口口口 |①---|
口口口① |----|
口口口口 |----|
口口口口 |----|

不確定度: 0

最終更新:2016年07月27日 22:28