こんがらガール
Charisma.com

EXTREME

Level: 8
BPM: 146
Notes: 660

1
口口口口 |----|
口口口口 |----|
口口口口 |----|
②口口① |--①②|
2
口口口口 |①-②-|
④口⑤③ |③④⑤-|
口口②口
口口①口

⑥口口口
口⑦口口
口⑧口口 |⑥-⑦-|
口口⑨口 |⑧-⑨-|
3
④④①口 |①---|
④口②口 |②---|
④④口③ |③---|
口口口口 |④---|
4
⑥口①① |①-②-|
口④①① |③④-⑤|
⑤口①⑦ |⑥-⑦-|
口③口② |----|
5
口口口⑥ |①-②-|
口口④口 |③④-⑤|
⑦口口⑤ |⑥-⑦-|
②口③① |----|
6
⑥口口口 |①-②-|
口④口口 |③④-⑤|
⑤口口⑦ |⑥-⑦-|
②③口① |----|
7
⑧⑧口口 |①-②-|
⑧⑥④口 |③④-⑤|
⑧⑧口⑦ |⑥-⑦-|
②⑤③① |⑧---|
8
⑥口①① |①-②-|
口④①① |③④-⑤|
⑤口①⑦ |⑥-⑦-|
口③口② |----|
9
口口口⑥ |①-②-|
口口④口 |③④-⑤|
⑦口口⑤ |⑥-⑦-|
②口③① |----|
10
⑥口口口 |①-②-|
口④口口 |③④-⑤|
⑤口口⑦ |⑥-⑦-|
②③口① |----|
11
⑥口口⑦ |①-②-|
口口④⑨ |③④-⑤|
⑧口口口 |⑥-⑦-|
②⑤③① |⑧-⑨-|
12
⑦②②⑥ |①-②-|
⑤口口口 |--③-|
口①①④ |④-⑤-|
③口口口 |⑥-⑦-|
13
⑧口口口 |①-②-|
⑥⑤⑤① |③-④-|
②口⑦口 |⑤-⑥-|
④口口③ |⑦-⑧-|
14
口①口① |①---|
口③口口 |②-③-|
口①口①
口口口②

口⑦口口
口口口④
口口⑥口 |④-⑤-|
⑤口口口 |⑥-⑦-|
15
口口口① |①-②-|
②口口口 |③-④-|
口口口口
④口③口

口口口口
⑧口口⑤
口⑥口口 |⑤-⑥-|
口口口⑦ |⑦-⑧-|
16
②口口② |①-②-|
⑥口④④ |--③-|
口口①口 |④---|
③口⑤口 |⑤-⑥-|
17
口⑥口① |①-②-|
⑧口⑤口 |③-④-|
口②口⑦ |⑤-⑥-|
④口口③ |⑦-⑧-|
18
⑥口口口 |①-②-|
口④⑦③ |③-④-|
口⑧①口 |⑤-⑥-|
②口⑤口 |⑦-⑧-|
19
⑥②口口 |①-②-|
口口⑦③ |③-④-|
⑧⑧⑤口 |⑤-⑥-|
④口口① |⑦-⑧-|
20
口口②② |--①-|
口③⑥口 |②---|
口口口口 |③-④-|
⑤口①④ |⑤-⑥-|
21
①①⑥③ |①---|
口⑤口③ |②-③-|
口②口口 |--④-|
口口④口 |⑤-⑥-|
22
口③口口 |①-②-|
口⑥口④ |③-④-|
⑤⑤②口 |⑤---|
①口口口 |⑥---|
23
③口口口 |①-②-|
口口②口 |③-④-|
口口④④
口①口口

口口口口
口口口口
口⑤口口 |--⑤-|
口⑦口⑥ |⑥-⑦-|
24
口②口口 |①-②-|
⑦口④① |③---|
口⑤③③ |④-⑤-|
口口口⑥ |⑥-⑦-|
25
口口①① |①---|
口③口口 |②-③-|
口口口②
口口口口

④④⑤⑤
口口口口
口口口口 |--④-|
口口口口 |⑤---|
26
⑧⑨⑨⑦ |①-②-|
口⑥⑤口 |③④⑤⑥|
口④③口 |⑦-⑧-|
①口口② |⑨---|
27
口口口口 |①-②-|
口⑤⑥口 |③④⑤⑥|
⑦③④⑧ |⑦-⑧-|
①⑨⑨② |⑨---|
28
口①口② |--①-|
口口③口 |②-③-|
口④口④ |④---|
口口④口 |----|
29
⑥③④⑥ |①-②-|
⑤①②⑤ |③-④-|
口口口口 |⑤---|
口口口口 |⑥---|
30
口⑤⑥口 |--①-|
口④⑦口 |②-③-|
口口口口 |④-⑤-|
③①②口 |⑥-⑦-|
31
口⑥⑤口 |①-②-|
④⑤⑥口 |③-④-|
③②①口 |⑤---|
口口口口 |⑥---|
32
口⑧⑦口 |①-②-|
口⑥口口 |③-④-|
④口⑤③ |⑤-⑥-|
②口口① |⑦-⑧-|
33
口⑥⑥③ |①-②-|
②口③⑤ |③-④-|
④②⑤① |⑤---|
口④①口 |⑥---|
34
口口口口 |①---|
①①口④ |②---|
③③口② |③---|
口口口口 |④---|
35
③③口口 |①-②-|
①①口口 |③-④-|
口口口④
口口②口

口口口⑩
⑨口⑧口
⑤⑤口口 |⑤⑥⑦⑧|
⑦口口⑥ |⑨⑩--|
36
口口口口 |----|
口口口口 |----|
口口口口
口口口口
37
口口口口 |①---|
③①①② |②-③-|
口①①口
口口口②

口口口口
口口口口
④⑤⑤④ |--④-|
口口口口 |--⑤-|
38
④⑤⑤③ |--①-|
口②①口 |②-③-|
口口口口 |④---|
③①②④ |⑤---|
39
口口口③ |①---|
①口①口 |②-③-|
①①①③
②①口口

④口口口
口口口口
口⑤⑤口 |--④-|
口口口口 |--⑤-|
40
③④④② |--①-|
口①①口 |②---|
④口口④ |③---|
②口口③ |④---|
41
口口口口 |①---|
④⑤⑤④ |②-③-|
④①①④ |--④-|
②口③口 |--⑤-|
42
④②①③ |--①-|
口⑤⑤口 |②-③-|
口⑤⑤口 |④---|
③①②④ |⑤---|
43
口②口② |①---|
①口口① |--②-|
②口口①
口①②口

口口③口
③口口③
口口口口 |----|
口口口③ |③---|
44
①口口口 |①---|
口①口口 |----|
口口口①
口①口口

③口口②
口口口口
②口口③ |--②-|
口④④口 |③-④-|
45
口①①口 |①---|
③①①② |②-③-|
④⑤⑤④ |--④-|
口口口② |--⑤-|
46
④⑤⑤③ |--①-|
口②①口 |②-③-|
口口口口 |④---|
③①②④ |⑤---|
47
④口口③ |①---|
口①①口 |②-③-|
口⑤⑤③ |--④-|
②①①口 |--⑤-|
48
③④④② |--①-|
口①①口 |②-③-|
④口口④ |----|
②口口③ |④---|
49
口口口口 |①---|
④⑤⑤④ |②-③-|
④①①④ |--④-|
②口③口 |--⑤-|
50
④②①③ |--①-|
口⑤⑤口 |②-③-|
口⑤⑤口 |④---|
③①②④ |⑤---|
51
口②口② |①---|
①口口① |--②-|
②口口①
口①②口

口口③口
③口口③
口口口口 |----|
口口口③ |③---|
52
①口口口 |①---|
口①口口 |----|
口口口①
口①口口

②②口口
②口口口
②②口口 |----|
口口口口 |②---|
53
⑥口①① |①-②-|
口④①① |③④-⑤|
⑤口①⑦ |⑥-⑦-|
口③口② |----|
54
⑧⑧口口 |①-②-|
⑧⑥④口 |③④-⑤|
⑧⑧口⑦ |⑥-⑦-|
②⑤③① |⑧---|
55
⑥口①① |①-②-|
口④①① |③④-⑤|
⑤口①⑦ |⑥-⑦-|
口③口② |----|
56
⑧⑧口口 |①-②-|
⑧⑥④口 |③④-⑤|
⑧⑧口⑦ |⑥-⑦-|
②⑤③① |⑧---|
57
⑥口①① |①-②-|
口④①① |③④-⑤|
⑤口①⑦ |⑥-⑦-|
口③口② |----|
58
⑧⑧口⑥ |①-②-|
⑧口④口 |③④-⑤|
⑧⑧口⑤ |⑥-⑦-|
②⑦③① |⑧---|
59
口口口② |①---|
③①②① |--②-|
口③①口 |----|
口口①口 |③---|
60
①口口④ |--①-|
口①④③ |----|
口口③② |②-③-|
口口②口 |④---|
61
⑦⑦⑥⑧ |①-②-|
③③口口 |③-④-|
⑤⑤口④ |⑤-⑥-|
①①口② |⑦-⑧-|
62
⑧口⑦⑦ |①-②-|
⑥②③③ |③-④-|
口口⑤⑤ |⑤-⑥-|
④口①① |⑦-⑧-|
63
口口口口 |①-②-|
口口口② |③-④-|
①①④口
③③口口

口口口口
⑤⑤口口
⑦⑦口⑧ |⑤-⑥-|
口口口⑥ |⑦-⑧-|
64
口口①① |①-②-|
④口③③ |③-④-|
⑧⑥⑦⑦ |⑤-⑥-|
口②⑤⑤ |⑦-⑧-|
65
①①④口 |①-②-|
⑤⑤⑧② |③-④-|
⑦⑦口⑥ |⑤-⑥-|
③③口口 |⑦-⑧-|
66
⑧口③③ |①-②-|
口④⑦⑦ |③-④-|
⑥口⑤⑤ |⑤-⑥-|
②口①① |⑦-⑧-|
67
口口口口 |①-②-|
③③口口 |③-④-|
口口口④
①①口②

口口⑧⑥
口口口口
⑤⑤口口 |⑤-⑥-|
⑦⑦口口 |⑦-⑧-|
68
⑥口⑦⑦ |①-②-|
②④①① |③-④-|
口口⑤⑤ |⑤-⑥-|
⑧口③③ |⑦-⑧-|
69
口口口口 |①---|
①口①① |②---|
④②口④ |③---|
口③③口 |--④-|
70
口①④口 |--①-|
口口⑤③ |--②-|
口口口口 |--③-|
口②②口 |--④⑤|
71
口口口口 |①---|
口口口口 |----|
口①口口 |----|
口口口口 |----|

不確定度: 0

最終更新:2016年07月27日 22:27