からっぽカプセル
内田真礼

ADVANCED

Level: 5
BPM: 136
Notes: 305

1
口口口口 |----|
口口口口 |----|
口口口口 |----|
口口口口 |----|
2
①口口② |①---|
口口口口 |----|
口口口口 |②---|
口口口口 |----|
3
口口口口 |①---|
①口口② |----|
口口口口 |②---|
口口口口 |----|
4
口口口口 |①---|
口口口口 |----|
①口口② |②---|
口口口口 |----|
5
口口口口 |①---|
口口口口 |----|
口口口口 |②---|
口①②口 |----|
6
口口口口 |①---|
口口④④ |②---|
①口③口 |③---|
口②口口 |④---|
7
口口口口 |①---|
④④口口 |②---|
口③口① |③---|
口口②口 |④---|
8
口口口口 |①---|
口口④④ |②---|
①口③口 |③---|
口②口口 |④---|
9
口口口口 |①---|
口口③③ |②---|
②口口口 |③---|
口①①口 |----|
10
④④①口 |①---|
口口口② |②---|
口口③口 |③---|
口口口口 |④---|
11
口口口口 |①---|
口①④④ |②---|
②口口口 |③---|
口③口口 |④---|
12
①口④④ |①---|
口②口口 |②---|
③口口口 |③---|
口口口口 |④---|
13
口口口口 |①---|
④④①口 |②---|
口②口口 |③---|
口口③口 |④---|
14
④④①口 |①---|
口口口② |②---|
口口③口 |③---|
口口口口 |④---|
15
口口口口 |①---|
口①④④ |②---|
②口口口 |③---|
口③口口 |④---|
16
①口④④ |①---|
口②口口 |②---|
③口口口 |③---|
口口口口 |④---|
17
口口口口 |①---|
④④①口 |②---|
口②口口 |③---|
口口③口 |④---|
18
口③③口 |①---|
口口②口 |②---|
口口①口 |③---|
口口口口 |----|
19
口③③口 |①---|
②口口② |----|
口①①口 |②---|
口口口口 |③---|
20
口口口② |①---|
③口口口 |----|
①口口① |②---|
口口口口 |③---|
21
口口口口 |①---|
口口③③ |②---|
口口口① |③---|
②口口口 |----|
22
①口口口 |①---|
口②口口 |②---|
③口口口 |③---|
④口口口 |④---|
23
口②②口 |①---|
口口口口 |----|
口口口口 |----|
口①口口 |②---|
24
②口口口 |①---|
口口口③ |----|
①口口① |②---|
口口口口 |③---|
25
口口口口 |①---|
③③口口 |②---|
①口口口 |③---|
口口口② |----|
26
口口口① |①---|
口口②口 |②---|
口口口③ |③---|
口口口④ |④---|
27
口④④口 |①---|
③③口口 |②---|
口②口口 |③---|
口口①口 |④---|
28
口口口② |①---|
口口口口 |②---|
①口口①
口口口口

口口口口
③口口口
口口口④ |③---|
口口口口 |④---|
29
口口口口 |①---|
口口③③ |②---|
②口口口 |③---|
①口口口 |----|
30
①口口口 |①---|
口②口口 |②---|
③口口口 |③---|
④口口口 |④---|
31
口④④口 |①---|
口口口③ |②---|
口口②口 |③---|
口①口口 |④---|
32
②口口口 |①---|
口口口口 |②---|
①口口①
口口口口

口口口口
口口口③
④口口口 |③---|
口口口口 |④---|
33
口口口口 |①---|
③③口口 |②---|
口口口② |③---|
口口口① |----|
34
口口口① |①---|
口口②口 |②---|
口口口③ |③---|
口口口④ |④---|
35
口④口口 |①---|
③口口口 |②---|
口②口口 |③---|
口口①口 |④---|
36
口口①① |①---|
口口口口 |----|
②②口口 |②---|
口口口口 |----|
37
口口口④ |①---|
口口③口 |②---|
口②口口 |③---|
①口口口 |④---|
38
②②口口 |①---|
口口口口 |----|
口口①① |②---|
口口口口 |----|
39
口口口① |①---|
口口②口 |②---|
口③口口 |③---|
④口口口 |④---|
40
口口口口 |①---|
口①①口 |----|
口②②口 |②---|
口口口口 |----|
41
口口口口 |①---|
①口③③ |②---|
④②口口 |③---|
口口口口 |④---|
42
①③口② |①---|
口口④口 |②---|
口⑤口口 |③-④-|
口口⑥口 |⑤-⑥-|
43
口③③口 |①---|
口口口口 |②---|
口口②② |③---|
①①口口 |----|
44
口⑥口⑧ |①-②-|
⑤口⑦口 |③-④-|
口③口① |⑤-⑥-|
④口②口 |⑦-⑧-|
45
口③③口 |①---|
口口口口 |②---|
口①②口 |③---|
口②①口 |----|
46
②口③① |①---|
口④口口 |②---|
口口⑤口 |③-④-|
口⑥口口 |⑤-⑥-|
47
口③③口 |①---|
口口口口 |②---|
②②口口 |③---|
口口①① |----|
48
口口口口 |①---|
口口③④ |②---|
①②口口 |③---|
口口口口 |④---|
49
②②②② |①---|
口口口口 |----|
口①①口 |②---|
口口口口 |----|
50
口⑤⑤口 |①--②|
①口口③ |--③-|
口②④口 |-④--|
口口口口 |⑤---|
51
口口口口 |①--②|
口④②口 |--③-|
③口口① |-④--|
口⑤⑤口 |⑤---|
52
口口口口 |①---|
口口口口 |----|
①①①① |----|
口口口口 |----|
53
④④①口 |①---|
口口口② |②---|
口口③口 |③---|
口口口口 |④---|
54
口口口口 |①---|
口①④④ |②---|
②口口口 |③---|
口③口口 |④---|
55
①口④④ |①---|
口②口口 |②---|
③口口口 |③---|
口口口口 |④---|
56
口口口口 |①---|
④④①口 |②---|
口②口口 |③---|
口口③口 |④---|
57
④④①口 |①---|
口口口② |②---|
口口③口 |③---|
口口口口 |④---|
58
口口口口 |①---|
口①④④ |②---|
②口口口 |③---|
口③口口 |④---|
59
①口④④ |①---|
口②口口 |②---|
③口口口 |③---|
口口口口 |④---|
60
口口口口 |①---|
④④①口 |②---|
口②口口 |③---|
口口③口 |④---|
61
口口口口 |①---|
口口②口 |②---|
口③口① |③---|
④口口口 |④---|
62
口口口口 |①---|
口②口口 |②---|
①口③口 |③---|
口口口④ |④---|
63
口口口口 |①---|
口①①口 |----|
口口口口 |----|
口②②口 |②---|
64
口口口② |①---|
口口口口 |②---|
①口口①
口口口口

口口口口
③口口口
口口口④ |③---|
口口口口 |④---|
65
口口口口 |①---|
口口③③ |②---|
②口口口 |③---|
①口口口 |----|
66
①口口口 |①---|
口②口口 |②---|
③口口口 |③---|
④口口口 |④---|
67
口口口口 |①---|
②②②② |----|
口口口口 |②---|
口①口口 |----|

不確定度: 0

最終更新:2016年07月27日 22:26