からっぽカプセル
内田真礼

EXTREME

Level: 8
BPM: 136
Notes: 662

1
口口口口 |----|
口口口口 |----|
口口口口 |----|
口口口口 |----|
2
①口口口 |①-②-|
口②⑤口 |③-④-|
③⑧口⑥ |⑤-⑥-|
④口⑦口 |⑦-⑧-|
3
口口口① |①-②-|
口⑤②口 |③-④-|
⑥口⑧③ |⑤-⑥-|
口⑦口④ |⑦-⑧-|
4
⑧③口① |①-②-|
④⑦②口 |③-④-|
口口⑥口 |⑤-⑥-|
口口口⑤ |⑦-⑧-|
5
口口口⑧ |①-②-|
口口⑦口 |③-④-|
①⑥③口 |⑤-⑥-|
⑤②口④ |⑦-⑧-|
6
①⑥④口 |①-②-|
口③⑤⑤ |③-④-|
口口②口 |⑤-⑥-|
口口⑦⑦ |⑦---|
7
①⑥④口 |①-②-|
口③⑤⑤ |③-④-|
口口②口 |⑤-⑥-|
口口⑦⑦ |⑦---|
8
①⑦⑦口 |①-②-|
口口口② |③-④-|
③口⑥口 |⑤-⑥-|
口⑤口④ |⑦---|
9
④口口④ |①--②|
口④④口 |--③-|
①口口② |④---|
②③③① |----|
10
口①口口 |①-②-|
口口②口 |③-④-|
口③口口
口口④口

⑧⑧口口
⑤⑤口口
口口口⑦ |⑤-⑥⑦|
⑥口口口 |--⑧-|
11
口口①口 |①-②-|
口②口口 |③-④-|
口口③口
口④口口

口口⑧⑧
口口⑤⑤
⑦口口口 |⑤-⑥⑦|
口口口⑥ |--⑧-|
12
口①口口 |①-②-|
口口②口 |③-④-|
口③口口
口口④口

口口口口
⑤⑤⑧⑧
口口⑦口 |⑤-⑥⑦|
口⑥口口 |--⑧-|
13
⑦⑦①⑤ |①-②-|
⑤口口口 |③-④-|
⑥②口④ |⑤--⑥|
口口③⑥ |--⑦-|
14
口口①口 |①-②-|
口②口口 |③-④-|
口口③口
口④口口

口口⑧⑧
口口⑤⑤
⑦口口口 |⑤-⑥⑦|
口口口⑥ |--⑧-|
15
口①口口 |①-②-|
口口②口 |③-④-|
口③口口
口口④口

⑧⑧口口
⑤⑤口口
口口口⑦ |⑤-⑥⑦|
⑥口口口 |--⑧-|
16
口口①口 |①-②-|
口②口口 |③-④-|
口口③口
口④口口

口口口口
⑧⑧⑤⑤
口⑦口口 |⑤-⑥⑦|
口口⑥口 |--⑧-|
17
⑤①⑦⑦ |①-②-|
口口④⑤ |③-④-|
口口②⑥ |⑤--⑥|
⑥③口口 |--⑦-|
18
口口口口 |①--②|
口口口④ |--③-|
①⑤③口 |④---|
④②②口 |--⑤-|
19
口口口口 |①---|
①口口口 |--②-|
口口②口
口口口①

④④口口
④口口③
④④口口 |③---|
③口口口 |④---|
20
口⑤⑤口 |①---|
口③口口 |--②③|
口⑥⑥④ |④-⑤-|
②⑦口① |⑥-⑦-|
21
口口口③ |①-②-|
口口⑤口 |--③-|
②口口③ |----|
①口口④ |--④⑤|
22
口②②口 |①-②-|
③口口⑥ |③-④-|
①④⑦口 |⑤-⑥-|
口⑧⑤口 |⑦-⑧-|
23
②②口口 |①---|
②①①口 |----|
②②口口 |----|
口口口口 |②---|
24
口口口口 |①---|
口口③口 |--②③|
口口口①
口口①②

口⑤⑤口
口口口口
④⑥⑥口 |④-⑤-|
口口⑦口 |⑥-⑦-|
25
③口口口 |①-②-|
口⑤口口 |--③-|
③口口② |----|
④口口① |--④⑤|
26
口②②口 |①-②-|
⑥口口③ |③-④-|
口⑦④① |⑤-⑥-|
口⑤⑧口 |⑦-⑧-|
27
口①口口 |①--②|
口口②① |--③-|
口口口③
口口口口

⑤⑤口④
⑤④口口
⑤⑤口口 |④---|
口口口口 |⑤---|
28
口口口口 |①---|
口口③① |--②③|
口口①口
口①口②

口⑤⑤口
口口口口
④口⑥口 |④-⑤-|
口口⑦口 |⑥-⑦-|
29
③口口口 |①-②-|
口口口口 |--③-|
③口口②
口口口①

口口口口
口口⑤口
口口口口 |----|
口口口④ |--④⑤|
30
口②②口 |①-②-|
⑥口口③ |③-④-|
①⑦④口 |⑤-⑥-|
口⑤⑧口 |⑦-⑧-|
31
⑤⑤口④ |①--②|
⑤②④口 |--③-|
⑤⑤②① |④---|
口口口③ |⑤---|
32
口口口口 |①---|
口①③① |--②③|
口②①口
口①口①

④④口⑤
口口口口
口口口口 |④-⑤-|
⑥⑥⑦口 |⑥-⑦-|
33
口③④口 |①-②-|
⑤⑥口口 |--③-|
口③④② |④---|
口口口① |--⑤⑥|
34
④口口① |①-②③|
口口③② |④-⑤-|
④口⑤①
口口口口

⑧口⑧口
口口口口
口⑦口口 |⑥--⑦|
口⑥口口 |--⑧-|
35
⑧⑦口③ |①-②-|
③口⑥⑧ |③-④⑤|
口口⑤② |-⑥⑦-|
口④①口 |⑧---|
36
口口口口 |①---|
口口口口 |②---|
②①②①
①②①②

③口口④
口口口口
④口口③ |----|
口口口口 |③-④-|
37
⑧②⑦口 |①-②③|
①⑥③① |④⑤⑥⑦|
⑨④⑤口 |-⑧⑨-|
口口⑩⑩ |⑩---|
38
②①②① |①---|
①②①② |②---|
口口口口
口口口口

④口口③
口口口口
口口口口 |----|
③口口④ |③-④-|
39
口⑦②⑨ |①-②③|
口③⑥⑧ |④⑤⑥⑦|
①⑤④① |-⑧⑨-|
⑩⑩口口 |⑩---|
40
口③⑥口 |①-②-|
③④②⑥ |③-④-|
⑥①⑤③ |⑤---|
口⑥③口 |⑥---|
41
②口口口 |①---|
①②口口 |②---|
口口②①
口口口②

口③口口
④口口口
⑤口口口 |③------④|
⑥口③口 |⑤⑥------|
42
⑤⑤口④ |①②-③|
口口④② |-④-⑤|
口口口①
口③③口

口口⑦口
口⑦口口
口⑧⑥⑥ |--⑥-|
口口⑧口 |⑦-⑧-|
43
②口口⑤ |①②-③|
①口④口 |-④-⑤|
口口口口
口③口口

⑧⑥⑦口
口⑧口⑦
口⑦口⑧ |⑥-⑦-|
⑦口⑧口 |⑧---|
44
⑤③⑦③ |①-②-|
①⑥①⑧ |③-④-|
④口④口 |⑤-⑥-|
口②口② |⑦-⑧-|
45
口口口口 |①---|
口②①口 |②---|
口①②口
口口口口

③③④④
③口④④
④口口③ |③-④-|
口④③口 |----|
46
口口④④ |①②-③|
⑤②口口 |-④-⑤|
口①口口
口口③③

⑥⑧口口
口口⑧口
⑦⑦⑨口 |⑥-⑦-|
口⑨口口 |⑧-⑨-|
47
③口④② |①②-③|
口③口① |-④-⑤|
口口口口
⑤口口口

口⑦口⑧
⑦⑨⑧口
⑧口⑦口 |⑥-⑦-|
口⑧⑥⑦ |⑧-⑨-|
48
②口口口 |①-②-|
口口口④ |③-④-|
口①口③
口口③口

口口⑤口
口⑥口口
口⑦⑦口 |⑤-⑥-|
口口口口 |⑦---|
49
口①口① |①---|
①口①口 |----|
口口口口 |②③④⑤----|
②③④⑤ |----|
50
⑤③①口 |①--②|
口口④⑤ |--③-|
①④②③ |-④--|
口口口口 |⑤---|
51
口口口口 |①--②|
口口口口 |--③-|
③③①①
口口②②

口口口口
口⑤⑤口
口口口⑥ |-④--|
④④⑥口 |⑤-⑥-|
52
①①①① |①---|
口口口口 |----|
口口口口 |----|
口口口口 |----|
53
口⑤⑤口 |①-②-|
口⑥⑧⑧ |③-④-|
③口⑦④ |⑤-⑥⑦|
①口口② |--⑧-|
54
口⑤⑤口 |①-②-|
⑧⑧⑥口 |③-④-|
④⑦口③ |⑤-⑥⑦|
②口口① |--⑧-|
55
口⑤⑤口 |①-②-|
口⑥口口 |③-④-|
③口⑦④ |⑤-⑥⑦|
①⑧⑧② |--⑧-|
56
口口口口 |①-②-|
口口口口 |③-④-|
①口口③
④口口②

口口口⑦
⑦⑤⑤⑦
⑦口口口 |⑤--⑥|
口⑥⑥口 |--⑦-|
57
口口①口 |①-②-|
口②口口 |③-④-|
口口③口
口④口口

口口⑧⑧
口口⑤⑤
⑦口口口 |⑤-⑥⑦|
口口⑥口 |--⑧-|
58
口①口口 |①-②-|
口口②口 |③-④-|
口③口口
口口④口

⑧⑧口口
⑤⑤口口
口口口⑦ |⑤-⑥⑦|
口⑥口口 |--⑧-|
59
口口①口 |①-②-|
口②口口 |③-④-|
口口③口
口④口口

口口口口
⑧⑧⑤⑤
⑦口口口 |⑤-⑥⑦|
口口口⑥ |--⑧-|
60
口①口口 |①-②-|
口口口口 |③-④-|
④口②口
口③口口

⑤⑦⑦口
口⑤口口
口口口⑥ |⑤--⑥|
口口⑥口 |--⑦-|
61
④口口① |①--②|
⑤④①⑤ |--③-|
⑤③②⑤ |-④--|
③口口② |⑤---|
62
②口口④ |①--②|
⑤②④⑤ |--③-|
⑤①③⑤ |-④--|
①口口③ |⑤---|
63
口①口口 |①---|
口①口口 |----|
口口①口
口口①口

②②口口
②口口口
②②口口 |----|
口口口口 |②---|
64
口口口口 |①---|
口③①① |--②③|
口口①①
②口①①

口口④④
口口⑦口
口口口⑥ |④-⑤-|
口口⑤口 |⑥-⑦-|
65
口口口③ |①-②-|
口口⑤口 |--③-|
②口口③ |----|
①口口④ |--④⑤|
66
口②②口 |①-②-|
③口口⑥ |③-④-|
①④⑦口 |⑤-⑥-|
口口⑤口 |⑦---|
67
②①①② |①---|
③①①③ |------②③|
④口口④ |④⑤------|
⑤口口⑤ |----|

不確定度: 0

最終更新:2016年07月27日 22:25