fellow
ピンクターボ

BASIC

Level: 4
BPM: 179
Notes: 235

1
口口口口 |----|
口口口口 |----|
口口口口 |----|
口口口口 |----|
2
口口口口 |----|
③口口④ |①---|
口①②口 |②---|
口口口口 |③-④-|
3
口口口口 |----|
口口口口 |----|
口口口口 |----|
口口口口 |----|
4
口口口口 |①-②-|
③口口④ |--③-|
①口口② |④---|
口口口口 |----|
5
口口口口 |①-②-|
③口口④ |--③-|
①口口② |④---|
口口口口 |----|
6
口口口口 |----|
③口口④ |①---|
口①②口 |②---|
口口口口 |③-④-|
7
口口口口 |----|
口口口口 |----|
口口口口 |----|
口口口口 |----|
8
口口口口 |①-②-|
③口口④ |--③-|
①口口② |④---|
口口口口 |----|
9
口口口口 |①-②-|
③口口④ |--③-|
①口口② |④---|
口口口口 |----|
10
口口口口 |----|
口口口口 |----|
口口口口 |----|
口口口口 |----|
11
口口口口 |①---|
口口口口 |----|
口②②口 |②---|
口①①口 |----|
12
口口口口 |①---|
①②③口 |②---|
口口口口 |③---|
口口口口 |----|
13
口口口口 |①---|
口口口口 |----|
口②②口 |②---|
口①①口 |----|
14
口口口口 |①---|
口③②① |②---|
口口口口 |③---|
口口口口 |----|
15
口口口口 |①---|
口口口口 |----|
口②②口 |②---|
口①①口 |----|
16
口口口④ |①---|
①②③口 |②---|
口口口口 |③---|
口口口口 |④---|
17
①口口口 |①---|
口口口口 |----|
口③③口 |②---|
口②②口 |③---|
18
口口口口 |①---|
口①①口 |----|
口口口口 |----|
口口口口 |----|
19
口①①口 |①---|
口口口口 |----|
口口口口 |----|
口口口口 |----|
20
口口口口 |----|
口口口口 |----|
口口口口 |----|
口口口口 |----|
21
口口口口 |①---|
口①①口 |----|
口口口口 |----|
口口口口 |----|
22
口口口口 |----|
口口口口 |----|
口口口口 |----|
口口口口 |----|
23
口口口口 |①---|
口口口口 |----|
口①①口 |----|
口口口口 |----|
24
口口口口 |----|
口口口口 |----|
口口口口 |----|
口口口口 |----|
25
口口口口 |①---|
口口口口 |----|
②口口② |②---|
口①①口 |----|
26
口口口口 |①---|
①口口① |----|
口口口口 |----|
口口口口 |----|
27
口①①口 |①---|
口口口口 |----|
口口口口 |----|
口口口口 |----|
28
口口口口 |----|
口口口口 |----|
口口口口 |----|
口口口口 |----|
29
口口口口 |①---|
口①①口 |----|
口口口口 |----|
口口口口 |----|
30
口口口口 |----|
口口口口 |----|
口口口口 |----|
口口口口 |----|
31
口口口口 |①---|
口口口口 |----|
口①①口 |②---|
②口口② |----|
32
口口口口 |①---|
口口口口 |----|
②口口② |②---|
口①①口 |----|
33
②口口② |①---|
①口口① |----|
口口口口 |②---|
口口口口 |----|
34
口口口口 |----|
口口口口 |----|
口口口口 |----|
口口口口 |----|
35
口口口口 |①---|
①②口口 |----|
口口口口 |②---|
口口口口 |----|
36
口口口口 |①---|
口口①② |----|
口口口口 |②---|
口口口口 |----|
37
口口口口 |①---|
口口口口 |----|
口口②① |②---|
口口口口 |----|
38
口口口口 |①---|
口口口口 |----|
②①口口 |②---|
口口口口 |----|
39
②①口口 |①---|
口口口口 |----|
口口口口 |②---|
口口口口 |----|
40
口口①② |①---|
口口口口 |----|
口口口口 |②---|
口口口口 |----|
41
口口口口 |①---|
口②②口 |----|
口①①口 |②---|
口口口口 |----|
42
口口口口 |----|
口口口口 |----|
口口口口 |----|
口口口口 |----|
43
口口口口 |①---|
口口口口 |----|
②①口口 |②---|
口口口口 |----|
44
口口口口 |①---|
口口口口 |----|
口口口口 |②---|
①②口口 |----|
45
口口口口 |①---|
口口口口 |----|
口口口口 |②---|
口口①② |----|
46
口口口口 |①---|
口口口口 |----|
口口②① |②---|
口口口口 |----|
47
口②②口 |①---|
口①①口 |----|
口口口口 |②---|
口口口口 |----|
48
①口口① |①---|
②口口② |----|
口口口口 |②---|
口口口口 |----|
49
口口口口 |①---|
口①①口 |----|
口②②口 |②---|
口口口口 |----|
50
口口口口 |----|
③口口③ |①---|
②口口② |②---|
①口口① |③---|
51
①口口① |①---|
口口口口 |----|
口口口口 |----|
口口口口 |----|
52
口口口口 |----|
口口口口 |----|
口口口口 |----|
口口口口 |----|
53
口口口口 |①---|
①口口② |----|
口口口口 |②---|
口口口口 |----|
54
口口口口 |①---|
口③③口 |②---|
口②②口 |③---|
口①①口 |----|
55
口口口口 |①---|
口口口口 |----|
①口口② |②---|
口口口口 |----|
56
口口口口 |①---|
口③③口 |②---|
口②②口 |③---|
口①①口 |----|
57
口口口口 |①---|
口口口口 |----|
①口口② |②---|
口口口口 |----|
58
④口口④ |①---|
口③③口 |②---|
口②②口 |③---|
口①①口 |④---|
59
口口口口 |①---|
口口口口 |----|
①口口② |②---|
口口口口 |----|
60
①口口① |①---|
口口口口 |----|
口口口口 |----|
口口口口 |----|
61
口口口口 |①---|
①口口② |----|
口口口口 |②---|
口口口口 |----|
62
口口口口 |①---|
口③③口 |②---|
口②②口 |③---|
口①①口 |----|
63
口口口口 |①---|
口口口口 |----|
①口口② |②---|
口口口口 |----|
64
口口口口 |①---|
口③③口 |②---|
口②②口 |③---|
口①①口 |----|
65
口口口口 |①---|
口口口口 |----|
①口口② |②---|
口口口口 |----|
66
④口口④ |①---|
口③③口 |②---|
口②②口 |③---|
口①①口 |④---|
67
口口口口 |①---|
口口口口 |----|
①口口② |②---|
口口口口 |----|
68
①口口① |①---|
④口口⑤ |②---|
口②③口 |③---|
口口口口 |④-⑤-|
69
口口口口 |----|
口口口口 |----|
口口口口 |----|
口口口口 |----|
70
口口口口 |①-②-|
③口口④ |--③-|
①口口② |④---|
口口口口 |----|
71
口口口口 |①-②-|
③口口④ |--③-|
①口口② |④---|
口口口口 |----|
72
口口口口 |----|
③口口④ |①---|
口①②口 |②---|
口口口口 |③-④-|
73
口口口口 |----|
口口口口 |----|
口口口口 |----|
口口口口 |----|
74
口口口口 |①-②-|
③口口④ |--③-|
①口口② |④---|
口口口口 |----|
75
口口口口 |①-②-|
③口口④ |--③-|
①口口② |④---|
口口口口 |----|
76
口口口口 |----|
③口口④ |①---|
口①②口 |②---|
口口口口 |③-④-|
77
口口口口 |----|
口口口口 |----|
口口口口 |----|
口口口口 |----|
78
口口口口 |①-②-|
③口口④ |--③-|
①口口② |④---|
口口口口 |----|
79
口口口口 |①-②-|
③口口④ |--③-|
①口口② |④---|
口口口口 |----|
80
口口口口 |----|
③口口④ |①---|
口①②口 |②---|
口口口口 |③-④-|
81
口口口口 |----|
口口口口 |----|
口口口口 |----|
口口口口 |----|
82
口口口口 |①-②-|
④口口③ |--③-|
②口口① |④---|
口口口口 |----|
83
⑥口口⑤ |①-②-|
④口口③ |--③-|
②口口① |④---|
口口口口 |⑤-⑥-|


不确定度: 0

タグ:

+ タグ編集
  • タグ:

このサイトはreCAPTCHAによって保護されており、Googleの プライバシーポリシー利用規約 が適用されます。

最終更新:2012年11月10日 14:30