夏にキスしていいですか?
アルスマグナ

BASIC

Level: 3
BPM: 120-160
Notes: 201

BPM: 120
1
口口口口 |----|
口口口口 |----|
口口口口 |----|
口口口口 |----|
2
口口口口 |①---|
口口口口 |----|
①②口口 |②---|
口口口口 |----|
3
口口口口 |①---|
口口口③ |----|
口口①② |②---|
口口口口 |③---|
4
口口口① |①---|
口口口口 |----|
口口口口 |----|
口口口口 |----|

BPM: 160
5
②口口② |①---|
口①口口 |----|
口口口口 |----|
口口口口 |②---|
6
口口口口 |①---|
①口口口 |----|
口②③口 |②---|
口口口口 |③---|
7
口①①口 |----|
口口口口 |----|
口口口口 |----|
口口口口 |①---|
8
口口口口 |①---|
口②③口 |----|
①口口口 |②---|
口口口口 |③---|
9
口口口① |①---|
口口口② |②---|
口口口③ |③---|
口口口④ |④---|
10
口口口口 |①---|
口②③口 |----|
①口口口 |②---|
口口口口 |③---|
11
口①①口 |----|
口口口口 |----|
口口口口 |----|
口口口口 |①---|
12
口口口口 |①---|
口②③口 |----|
①口口口 |②---|
口口口口 |③---|
13
口口口① |①---|
口口口② |②---|
口口口③ |③---|
口口口④ |④---|
14
①口口口 |①---|
口口口② |②---|
③口口口 |③---|
口口口④ |④---|
15
口③③口 |①---|
④②②④ |②---|
口①①口 |③---|
口口口口 |④---|
16
口口口口 |①---|
口①口口 |----|
口口口口 |----|
口口口口 |----|
17
口口口口 |①---|
口口①口 |----|
口口口口 |----|
口口口口 |----|
18
②①①② |①---|
口口口口 |----|
口口口口 |②---|
口口口口 |----|
19
口口口口 |----|
口口口口 |----|
口口口口 |----|
口口口口 |----|
20
口口口口 |①---|
口口口口 |----|
口①口口 |----|
口口口口 |----|
21
口口口口 |①---|
口口②口 |----|
口口①口 |②---|
口口口口 |----|
22
口口口口 |①---|
口②口口 |----|
口①口口 |②---|
口口口口 |----|
23
口①口口 |①---|
口口口口 |----|
口口口口 |----|
口口口口 |----|
24
口口口口 |----|
①②③口 |①---|
口口口口 |②---|
口口口口 |③---|
25
口口口口 |①---|
口口口① |----|
口口口口 |----|
口口口口 |----|
26
口①①口 |①---|
口口口口 |----|
口②②口 |②---|
口口口口 |----|
27
口口口口 |①---|
口①①口 |----|
口口口口 |----|
口口口口 |----|
28
口①①口 |①---|
口口口口 |----|
口口口口 |----|
口口口口 |----|
29
口口口口 |①---|
口①①口 |----|
口口口口 |----|
口口口口 |----|
30
口口口口 |①---|
口口口口 |----|
①②②① |②---|
口口口口 |----|
31
口口口口 |①---|
①②②① |----|
口口口口 |②---|
口口口口 |----|
32
①口口① |----|
口口口口 |----|
口口口口 |----|
口口口口 |①---|
33
口口口口 |①---|
①②③④ |②---|
口口口口 |③---|
口口口口 |④---|
34
口③③口 |①---|
口②②口 |②---|
口①①口 |③---|
口口口口 |----|
35
口口口口 |①---|
④③②① |②---|
口口口口 |③---|
口口口口 |④---|
36
口③③口 |①---|
口②②口 |②---|
口①①口 |③---|
口口口口 |----|
37
口口口口 |①---|
①口口② |②---|
③口口④ |③---|
口口口口 |④---|
38
口③③口 |①---|
④②②口 |②---|
口①①口 |③---|
口口口口 |④---|
39
口口口口 |①---|
口口口① |----|
口口口口 |----|
口口口口 |----|
40
③口口③ |①---|
口口口口 |--②-|
②口口② |--③-|
口①①口 |----|
41
口口口口 |①---|
①②③④ |②---|
口口口口 |③---|
口口口口 |④---|
42
口③③口 |①---|
口②②口 |②---|
口①①口 |③---|
口口口口 |----|
43
口口口口 |①---|
④③②① |②---|
口口口口 |③---|
口口口口 |④---|
44
口③③口 |①---|
口②②口 |②---|
口①①口 |③---|
口口口口 |----|
45
口口口口 |①---|
口②口口 |--②-|
①口口①
口口口口

口口口口
口口③口
④口口口 |③---|
口口口口 |--④-|
46
口②③口 |--①-|
口口口口 |--②-|
口口口① |③---|
口口口口 |----|
47
口口口口 |①---|
②①①② |----|
口口口口 |②---|
口口口口 |----|
48
口口口口 |①---|
③口口③ |----|
②①①② |②---|
口口口口 |③---|
49
①口口① |①---|
②口口② |----|
口口口口 |②---|
口口口口 |----|
50
②口口② |①---|
口口口口 |----|
①口口① |----|
口口口口 |②---|
51
口口口口 |①---|
①口口口 |----|
口②③口 |②---|
口口口口 |③---|
52
口①①口 |----|
口口口口 |----|
口口口口 |----|
口口口口 |①---|
53
口口口口 |①---|
口②③口 |----|
①口口口 |②---|
口口口口 |③---|
54
口口口① |①---|
口口口② |②---|
口口口③ |③---|
口口口④ |④---|
55
口口口口 |①---|
口②③口 |----|
①口口口 |②---|
口口口口 |③---|
56
口①①口 |----|
口口口口 |----|
口口口口 |----|
口口口口 |①---|
57
口口口口 |①---|
口②③口 |----|
①口口口 |②---|
口口口口 |③---|
58
口口口① |①---|
口口口② |②---|
口口口③ |③---|
口口口④ |④---|
59
①口口口 |①---|
口口口② |②---|
③口口口 |③---|
口口口④ |④---|
60
口③③口 |①---|
④②②④ |②---|
口①①口 |③---|
口口口口 |④---|

不確定度: 0

最終更新:2016年07月27日 16:50