夏にキスしていいですか?
アルスマグナ

ADVANCED

Level: 6
BPM: 120-160
Notes: 376

BPM: 120
1
口口口口 |----|
口口口口 |----|
口口口口 |----|
口口口口 |----|
2
口口口口 |①---|
①口②③ |--②-|
④口口⑤ |③---|
口口口口 |④-⑤-|
3
口口口口 |①-②-|
④⑤⑥口 |--③-|
口①②口 |--④-|
口③③口 |⑤-⑥-|
4
口口口口 |①---|
口口口① |----|
口口口口 |----|
口口口口 |----|

BPM: 160
5
口④口④ |①---|
口口③口 |②---|
口口②口 |③---|
口口①口 |④---|
6
口口②口 |①---|
③口④② |--②-|
口①口口 |③-④-|
⑤口⑥口 |⑤-⑥-|
7
①口口① |----|
口口口口 |----|
口口口口 |----|
口口口口 |①---|
8
口口②口 |①---|
③口④② |--②-|
口①口口 |③-④-|
⑤口⑥口 |⑤-⑥-|
9
①口口① |①---|
③口口③ |②---|
②口口② |③---|
④口口④ |④---|
10
口口②口 |①---|
③口④② |--②-|
口①口口 |③-④-|
⑤口⑥口 |⑤-⑥-|
11
①口口① |----|
口口口口 |----|
口口口口 |----|
口口口口 |①---|
12
口口②口 |①---|
③口④② |--②-|
口①口口 |③-④-|
⑤口⑥口 |⑤-⑥-|
13
①口口① |①---|
③口口③ |②---|
②口口② |③---|
④口口④ |④---|
14
口④④口 |①---|
口③③口 |②---|
口②②口 |③---|
口①①口 |④---|
15
⑤口口⑤ |①---|
③口口③ |②---|
②④④② |③-④-|
①口口① |⑤---|
16
口⑤⑤口 |--①-|
③口口④ |②-③-|
①口口② |④---|
口口口口 |⑤---|
17
⑤口口⑥ |--①-|
③口口④ |②-③-|
①口口② |④-⑤-|
口口口口 |⑥---|
18
⑤口口⑤ |--①-|
口口口口 |②-③-|
口③④口 |④---|
口①②口 |⑤---|
19
口①②口 |--①-|
口③④口 |②-③-|
口⑤⑥口 |④-⑤-|
口⑦口口 |⑥-⑦-|
20
⑥口口⑦ |①-②-|
④口口⑤ |③-④-|
②口口③ |⑤-⑥-|
口口①口 |⑦---|
21
口⑦口口 |①-②-|
口⑤⑥口 |③-④-|
口③④口 |⑤-⑥-|
口①②口 |⑦---|
22
口⑤⑤口 |--①-|
③口口④ |②-③-|
①口口② |④---|
口口口口 |⑤---|
23
①口口② |--①-|
③口口④ |②-③-|
⑤口口⑥ |④-⑤-|
⑦口口口 |⑥-⑦-|
24
口口口口 |①---|
②③④口 |②---|
口口口口 |③---|
口口口① |④---|
25
④③③④ |①---|
口口口① |②-③-|
⑤口口⑤ |--④-|
口②②口 |--⑤-|
26
口口口口 |--①-|
口口④⑥ |②-③-|
口②口口 |④---|
①③⑤口 |⑤-⑥-|
27
口口口口 |----|
①②③口 |----|
口口口口 |--①-|
口口口口 |②-③-|
28
口口口口 |--①-|
④⑤⑥口 |②-③-|
口③②① |--④-|
口口口口 |⑤-⑥-|
29
口口口口 |--①-|
口口口口 |②-③-|
④③②① |----|
口口口口 |--④-|
30
①②③④ |--①-|
口口口口 |②-③-|
口口口⑤ |④---|
口⑥⑥口 |⑤-⑥-|
31
口口口口 |--①-|
口②②口 |--②-|
口①①口 |----|
口口口口 |----|
32
口①口① |----|
口口口口 |----|
口①口① |----|
口口口口 |①---|
33
口口口口 |①-②-|
③⑤④⑥ |③-④-|
①⑦②⑧ |⑤-⑥-|
口口口口 |⑦-⑧-|
34
口③③口 |①---|
口口口口 |②---|
口④④口 |③---|
①②②① |--④-|
35
口口口⑦ |--①-|
①⑤⑥② |②-③-|
③口口④ |④-⑤-|
口口口口 |⑥-⑦-|
36
口③③口 |①---|
口口口口 |②---|
口②②口 |③---|
口①①口 |----|
37
口口口口 |①-②-|
①⑤⑥② |③-④-|
③⑦⑧④ |⑤-⑥-|
口口口口 |⑦-⑧-|
38
口③③口 |①---|
⑤口口⑤ |②---|
④口口④ |③---|
①②②① |④-⑤-|
39
①口口① |①---|
②口口口 |----|
口口口口 |----|
口口口口 |--②-|
40
④③③④ |①---|
口口口① |②-③-|
④②②④ |--④-|
口口口口 |----|
41
口⑦口⑧ |①-②-|
③口④口 |③-④-|
口⑤口⑥ |⑤-⑥-|
①口②口 |⑦-⑧-|
42
口③③口 |①---|
口口口口 |②---|
口④④口 |③---|
①②②① |--④-|
43
口口口⑦ |--①-|
①⑤⑥② |②-③-|
③口口④ |④-⑤-|
口口口口 |⑥-⑦-|
44
口③③口 |①---|
口口口口 |②---|
口②②口 |③---|
口①①口 |----|
45
口口口口 |①---|
口口口口 |--②-|
②口口②
口①①口

③口口③
口口口口
口口口口 |③---|
口④④口 |--④-|
46
③①①③ |--①-|
口口口口 |--②-|
②口口② |③---|
口口口口 |----|
47
口口口口 |①---|
①口②③ |--②-|
④口口⑤ |③---|
口口口口 |④-⑤-|
48
口口口口 |①-②-|
④⑤⑥口 |--③-|
口①②口 |--④-|
口③③口 |⑤-⑥-|
49
口口口口 |①-②-|
⑥口口① |③---|
②口口⑤ |④-⑤-|
④口口③ |⑥---|
50
口⑥口⑥ |①-②-|
口⑤口口 |③-④-|
口③④口 |⑤---|
口①②口 |⑥---|
51
口口②口 |①---|
③口④② |--②-|
口①口口 |③-④-|
⑤口⑥口 |⑤-⑥-|
52
①口口① |----|
口口口口 |----|
口口口口 |----|
口口口口 |①---|
53
口口②口 |①---|
③口④② |--②-|
口①口口 |③-④-|
⑤口⑥口 |⑤-⑥-|
54
①口口① |①---|
③口口③ |②---|
②口口② |③---|
④口口④ |④---|
55
口口②口 |①---|
③口④② |--②-|
口①口口 |③-④-|
⑤口⑥口 |⑤-⑥-|
56
①口口① |----|
口口口口 |----|
口口口口 |----|
口口口口 |①---|
57
口口②口 |①---|
③口④② |--②-|
口①口口 |③-④-|
⑤口⑥口 |⑤-⑥-|
58
①口口① |①---|
③口口③ |②---|
②口口② |③---|
④口口④ |④---|
59
口④④口 |①---|
口③③口 |②---|
口②②口 |③---|
口①①口 |④---|
60
⑤口口⑤ |①---|
③口口③ |②---|
②④④② |③-④-|
①口口① |⑤---|

不確定度: 0

最終更新:2016年07月27日 16:50