混ぜるな危険
筋肉少女帯

BASIC

Level: 3
BPM: 178
Notes: 162

1
口口口口 |----|
口口口口 |----|
口口口口 |----|
口口口口 |----|
2
口口口口 |----|
口口口口 |----|
口口口口 |----|
口口口口 |----|
3
口口口口 |----|
口口口口 |----|
口口口口 |----|
口口口口 |----|
4
口口口口 |①---|
口口口口 |--②-|
口口③③ |----|
②②①① |③---|
5
口口口口 |--①-|
口②②口 |----|
①①口口 |②---|
口口口口 |----|
6
口口口口 |①---|
口口口口 |----|
口口①① |----|
口口口口 |----|
7
口口口口 |①---|
口口口口 |----|
①①口口 |----|
口口口口 |----|
8
口口口口 |①---|
①口口口 |----|
②口口口 |②---|
口口口口 |----|
9
口口口口 |①---|
口②②口 |--②-|
口①①口 |----|
口口口口 |----|
10
口口口口 |①---|
口口口口 |----|
①①口口 |----|
口口口口 |----|
11
口口口口 |①---|
口口口口 |----|
口口①① |----|
口口口口 |----|
12
口口口口 |①---|
口口口① |----|
口口口② |②---|
口口口口 |----|
13
口口口口 |①---|
口②②口 |--②-|
口①①口 |----|
口口口口 |----|
14
口口②① |①---|
口口口口 |----|
口口口口 |----|
口口口口 |②---|
15
口①口口 |----|
口口口口 |----|
口口口口 |①---|
口口口口 |----|
16
口口口口 |①---|
①②口口 |----|
口口口口 |----|
口口口口 |②---|
17
口口口口 |----|
口口①口 |----|
口口口口 |①---|
口口口口 |----|
18
口①口口 |①---|
口②口口 |----|
口口口口 |②---|
口口口口 |----|
19
口口口口 |①---|
口口②口 |----|
口①口口 |②---|
口口口口 |----|
20
口口口口 |①---|
口①口口 |----|
口口②口 |②---|
口口口口 |----|
21
口口口口 |①---|
口①①口 |--②-|
口②②口 |----|
口口口口 |----|
22
口口①口 |①---|
口口②口 |----|
口口口口 |②---|
口口口口 |----|
23
口口口口 |①---|
口②口口 |----|
口口①口 |②---|
口口口口 |----|
24
口口口口 |①---|
口口①口 |----|
口②口口 |②---|
口口口口 |----|
25
口②②口 |①---|
口①①口 |--②-|
口口口口 |----|
口口口口 |----|
26
口口口口 |①---|
①②口口 |----|
口口口口 |②---|
口口口口 |----|
27
口②口口 |①---|
口口①口 |----|
口口口口 |②---|
口口口口 |----|
28
口口①口 |①---|
口口②口 |----|
口口口口 |②---|
口口口口 |----|
29
口口口口 |①---|
口②②口 |--②-|
口①①口 |----|
口口口口 |----|
30
口口口口 |①---|
口口②① |----|
口口口口 |②---|
口口口口 |----|
31
口口②口 |①---|
口①口口 |----|
口口口口 |②---|
口口口口 |----|
32
口①口口 |①---|
口②口口 |----|
口口口口 |②---|
口口口口 |----|
33
口口口口 |①---|
②②②② |--②-|
口①①口 |----|
口口口口 |----|
34
口①①口 |①---|
口②②口 |----|
口口口口 |②---|
口口口口 |----|
35
口口口口 |①---|
口口口口 |----|
口①①口 |----|
口口口口 |----|
36
口口口口 |①---|
口口口口 |----|
口口口② |②---|
口口口① |----|
37
口口口口 |①---|
口口口① |----|
口口口口 |----|
口口口口 |----|
38
口口②① |①---|
口口口口 |----|
口口口口 |②---|
口口口口 |----|
39
②①口口 |①---|
口口口口 |----|
口口口口 |②---|
口口口口 |----|
40
口口口口 |①---|
口①①口 |----|
口口口口 |----|
口口口口 |----|
41
口口口口 |----|
口①①口 |----|
口①①口 |--①-|
口口口口 |----|
42
口口口口 |----|
口口口口 |----|
口口口口 |----|
口口口口 |----|
43
口口口口 |----|
口口口口 |----|
口口口口 |----|
口口口口 |----|
44
口口口口 |①---|
②②口口 |--②-|
①①口口 |----|
口口口口 |----|
45
口口口口 |①---|
口口②② |--②-|
口口①① |----|
口口口口 |----|
46
口①口口 |①---|
口②口口 |----|
口口口口 |②---|
口口口口 |----|
47
口口口口 |①---|
②②口口 |--②-|
口口①口 |----|
口口口口 |----|
48
口口口口 |①---|
口口②② |--②-|
口口①① |----|
口口口口 |----|
49
口口口口 |①---|
②②口口 |--②-|
①①口口 |----|
口口口口 |----|
50
口口口口 |①---|
口口②口 |----|
口口①口 |②---|
口口口口 |----|
51
口口①口 |①---|
口口口口 |----|
口口口口 |----|
口口口口 |----|
52
口口口口 |①---|
②②口口 |--②-|
①①口口 |----|
口口口口 |----|
53
口口口口 |①---|
口口②② |--②-|
口口①① |----|
口口口口 |----|
54
①口口口 |①---|
②口口口 |----|
口口口口 |②---|
口口口口 |----|
55
口口口口 |①---|
口②②口 |--②-|
口①口口 |----|
口口口口 |----|
56
口口口口 |①---|
口口②② |--②-|
口口①① |----|
口口口口 |----|
57
口口口口 |①---|
②②口口 |--②-|
①①口口 |----|
口口口口 |----|
58
口口①口 |①---|
口口②口 |----|
口口口口 |②---|
口口口口 |----|
59
口口口口 |①---|
口口口口 |----|
口口①口 |②---|
口口②口 |----|
60
口口口口 |①---|
口口口口 |----|
口口②① |----|
口口口口 |②---|
61
口口口口 |----|
口口口口 |----|
口①口口 |①---|
口口口口 |----|
62
口口口口 |①---|
①②口口 |----|
口口口口 |----|
口口口口 |②---|
63
口口口口 |----|
口口①口 |----|
口口口口 |①---|
口口口口 |----|
64
口口②① |①---|
口口口口 |----|
口口口口 |----|
口口口口 |②---|
65
口①口口 |----|
口口口口 |----|
口口口口 |①---|
口口口口 |----|
66
口口口口 |①---|
①②口口 |----|
口口口口 |----|
口口口口 |②---|
67
口口口口 |----|
口口①口 |----|
口口口口 |①---|
口口口口 |----|
68
口口口口 |----|
口①①口 |----|
口①①口 |①---|
口口口口 |----|

不確定度: 0

最終更新:2016年07月27日 16:46